<?xml version="1.0" standalone="no"?>
<!DOCTYPE svg PUBLIC "-//W3C//DTD SVG 1.1//EN" "http://www.w3.org/Graphics/SVG/1.1/DTD/svg11.dtd" >
<svg xmlns="http://www.w3.org/2000/svg">
<metadata>
This is a custom SVG webfont generated by Font Squirrel.
Copyright   : Copyright c 2010 by Stereotypesde All rights reserved
Designer    : Sascha Timplan
Foundry     : Stereotypesde
</metadata>
<defs>
<font id="webfontKGgxPERO" horiz-adv-x="493" >
<font-face units-per-em="2048" ascent="1536" descent="-512" />
<missing-glyph horiz-adv-x="425" />
<glyph unicode=" "  horiz-adv-x="425" />
<glyph unicode="&#x09;" horiz-adv-x="425" />
<glyph unicode="&#xa0;" horiz-adv-x="425" />
<glyph unicode="!" d="M195 57q0 25 18 43q16 16 39 17q27 0 43 -16.5t16 -43.5q0 -23 -18 -41q-16 -16 -41 -16q-20 0 -38.5 18.5t-18.5 38.5zM229 1434h50l-3 -713l-4 -404h-36l-5 404z" />
<glyph unicode="&#x22;" horiz-adv-x="428" d="M82 1434h51l-8 -451h-35zM297 1434h51l-8 -451h-35z" />
<glyph unicode="#" horiz-adv-x="1501" d="M55 340l4 37h365l90 534h-393l4 37h395l84 486h41l-84 -486h514l84 486h41l-84 -486h332l-4 -37h-334l-90 -534h362l-4 -37h-364l-82 -483h-41l82 483h-514l-82 -483h-41l82 483h-363zM465 377h514l90 534h-514z" />
<glyph unicode="$" horiz-adv-x="1214" d="M201 88l35 373h16q4 0 9 -1l5 -1l-24 -371q156 -68 352 -68v699q-209 76 -293 162t-84 229q0 139 105 229q106 92 272 107v205h41v-201q168 0 340 -47l8 -23l-27 -250h-16q-4 0 -9 2l-5 1l12 237q-126 43 -276 43q-2 0 -6.5 -1t-8.5 -1h-12v-666q338 -125 391 -339 q10 -51 10 -91q0 -129 -106 -225q-104 -95 -295 -104v-179h-41v177q-129 0 -209 18q-82 18 -178 59zM262 1110q0 -131 70 -201q72 -72 262 -147v647q-88 -10 -152 -35q-68 -27 -125 -96q-55 -68 -55 -168zM635 23q154 10 276 92q84 102 84 200q0 131 -82 222 q-84 92 -278 165v-679z" />
<glyph unicode="%" horiz-adv-x="2187" d="M164 1034q0 188 108 303q106 113 279 113q188 0 292.5 -110.5t104.5 -295.5q0 -190 -106 -301q-104 -109 -289 -108q-168 0 -278.5 110.5t-110.5 288.5zM205 1032q0 -160 98 -260q98 -102 250 -102q156 0 264 90q90 121 90 282q0 166 -94 271q-92 102 -264 102 q-123 0 -232 -74q-112 -133 -112 -309zM733 -31l680 1512l33 -17l-678 -1509zM1241 387q0 190 106.5 303t280.5 113q188 0 292.5 -110.5t104.5 -295.5q0 -194 -104 -301q-104 -109 -291 -108q-170 0 -280 110q-109 109 -109 289zM1282 385q0 -156 100 -260q98 -102 248 -102 q156 0 264 90q90 121 91 282q0 169 -93 271q-92 102 -266 102q-123 0 -231 -74q-113 -133 -113 -309z" />
<glyph unicode="&#x26;" horiz-adv-x="1703" d="M184 408q0 152 72 247q74 98 213 189q-49 127 -49 237q0 184 73.5 276.5t249.5 92.5q186 0 334 -68l-37 -233l-28 2l18 209q-117 53 -289 53q-125 0 -219 -72q-61 -100 -61 -260q0 -207 170 -438q166 -225 430 -428q180 205 227 524l-307 19v20h569l-2 -20l-221 -19 q-43 -330 -235 -546q96 -72 247 -162l234 -11l-2 -20h-256q-145 84 -252 164q-180 -180 -414 -180q-240 0 -352 116q-113 115 -113 308zM225 403q0 -176 101 -278q101 -104 319 -105q221 0 387 166q-408 311 -547 621q-127 -82 -194 -172q-66 -91 -66 -232z" />
<glyph unicode="'" horiz-adv-x="212" d="M82 1434h51l-8 -451h-35z" />
<glyph unicode="(" horiz-adv-x="749" d="M238 651q0 262 84 508q84 244 215 397l32 -20q-127 -158 -202 -397q-80 -250 -80 -488q0 -481 286 -884l-34 -23q-152 207 -228 428q-73 218 -73 479z" />
<glyph unicode=")" horiz-adv-x="749" d="M168 1534l35 22q162 -217 229 -426q72 -219 72 -479q0 -264 -82 -508q-82 -242 -217 -399l-33 20q127 158 203 398q80 248 80 489q0 480 -287 883z" />
<glyph unicode="*" horiz-adv-x="669" d="M102 1235l9 22q18 28 104 -6l115 -47l6 129l-25 97q20 0 25 -3q33 -10 26 -100l-8 -123l123 35l84 53l8 -24q0 -31 -86 -56l-125 -30l74 -105l78 -65q-14 -8 -21 -15q-33 -12 -81 70l-66 102l-82 -104l-37 -92q-4 2 -18 16q-23 29 39 94l80 99l-121 47z" />
<glyph unicode="+" horiz-adv-x="950" d="M123 508v37h334v334h37v-334h335v-37h-335v-336h-37v336h-334z" />
<glyph unicode="," d="M178 -104q47 51 68 104q-23 0 -41 18q-16 16 -17 39q0 27 16.5 43.5t41 16.5t43.5 -19q16 -16 16 -49q0 -78 -100 -180z" />
<glyph unicode="-" horiz-adv-x="909" d="M143 520v41h625v-41h-625z" />
<glyph unicode="." d="M188 57q0 27 16.5 43.5t41.5 16.5q27 0 43 -16.5t16 -43.5q0 -23 -18 -41q-16 -16 -41 -16q-23 0 -41 18q-17 16 -17 39z" />
<glyph unicode="/" horiz-adv-x="548" d="M72 -143l366 1679h41l-366 -1679h-41z" />
<glyph unicode="0" horiz-adv-x="1382" d="M164 559q0 270 143 438q141 166 373 166q254 0 397.5 -163.5t143.5 -446.5q0 -258 -140 -412q-141 -158 -383 -157q-244 0 -389 159q-145 162 -145 416zM205 559q0 -244 135 -391.5t360 -147.5q170 0 332 107q147 187 148 424q0 266 -133 422q-132 154 -363 153 q-154 0 -315 -106q-84 -96 -125 -205q-39 -104 -39 -256z" />
<glyph unicode="1" horiz-adv-x="806" d="M145 0l2 20l244 11v1085l-246 10l2 21h517l-2 -21l-230 -10v-1085l234 -11l-2 -20h-519z" />
<glyph unicode="2" horiz-adv-x="1054" d="M82 53q178 80 336 193q168 121 287 274q123 160 122 301q0 138 -79 221q-80 84 -252 84q-186 0 -322 -55l-8 -291l-27 2l-14 287l8 23q137 72 363 71q186 0 278 -94t92 -248q0 -111 -73.5 -233.5t-182 -225t-235.5 -188.5q-113 -76 -240 -131l2 -8l795 6l-2 -41h-846z " />
<glyph unicode="3" horiz-adv-x="1157" d="M164 -158l18 31q150 -88 318 -88q143 0 213 29q78 33 145 88q80 104 80 229q0 154 -127 246q-123 90 -336 90l-2 27q190 0 322 65q106 115 106 254q0 125 -92 219t-268 94q-164 0 -322 -39l-8 -256l-31 3l-6 237l10 41q145 51 359 51q184 0 291 -102q104 -102 104 -248 q0 -117 -76 -213t-188 -119v-8q123 -27 213 -115q88 -86 88 -225q0 -166 -121 -276q-117 -109 -354 -109q-184 0 -336 94z" />
<glyph unicode="4" horiz-adv-x="1167" d="M119 39l364 1108h33v-23l-356 -1085h686v524l10 90h31v-614h231l-2 -39h-229v-186l-10 -80h-31v266h-723z" />
<glyph unicode="5" horiz-adv-x="1165" d="M156 -190l16 32q176 -86 360 -86q244 0 396 144q68 113 67 243q0 180 -127 284.5t-317 104.5q-150 0 -336 -51l-4 37l16 629h764l-2 -37h-723l-16 -582q147 41 301 41q211 0 348 -112.5t137 -313.5q0 -197 -135 -309q-137 -115 -369 -115q-214 1 -376 91z" />
<glyph unicode="6" horiz-adv-x="1150" d="M133 684q0 319 149.5 524t368.5 205q186 0 338 -63l-20 -37q-133 63 -316 63q-197 0 -338 -194.5t-141 -499.5q206 123 424 123q221 0 330 -107q111 -109 110 -311q0 -190 -116 -297q-115 -106 -324 -106q-219 0 -342 176t-123 524zM174 641q12 -621 426 -621 q172 0 309 95q86 119 86 272q0 184 -100 282.5t-297 98.5q-217 0 -424 -127z" />
<glyph unicode="7" horiz-adv-x="1103" d="M88 1147h918l4 -35q-420 -627 -541 -1378h-41l-4 18q144 759 534 1358h-825l-6 -297l-29 2z" />
<glyph unicode="8" horiz-adv-x="1142" d="M133 346q0 137 90 229q90 94 234 144q-283 121 -283 366q0 143 109 236q108 92 282 92q176 0 289 -102q109 -100 109 -246q0 -121 -80 -219t-203 -154q162 -51 239.5 -139t77.5 -223q0 -150 -106 -248q-109 -98 -324 -98q-211 0 -321 102q-113 104 -113 260zM174 346 q0 -143 102 -235q98 -90 293 -91q176 0 318 97q70 100 69 211q0 143 -88 223q-90 80 -284 127q-55 14 -78 22q-332 -114 -332 -354zM215 1083q0 -137 100 -229q102 -92 275 -135l41 -10q125 43 209 139q82 94 82 213q0 139 -94.5 227t-270.5 88q-133 0 -266 -84 q-76 -94 -76 -209z" />
<glyph unicode="9" horiz-adv-x="1155" d="M117 743q0 203 106 314q104 106 344 106q436 0 437 -755q0 -315 -121 -496q-121 -178 -359 -178q-207 0 -372 98l22 37q151 -98 350 -98q438 0 439 657q-164 -90 -428 -90q-186 0 -304 106q-114 104 -114 299zM158 741q0 -182 102 -274q104 -94 277 -94q264 0 424 92 q-6 329 -99 498q-92 168 -295 167q-172 0 -311 -81q-98 -121 -98 -308z" />
<glyph unicode=":" d="M188 57q0 27 16.5 43.5t41.5 16.5q27 0 43 -16.5t16 -43.5q0 -23 -18 -41q-16 -16 -41 -16q-23 0 -41 18q-17 16 -17 39zM188 924q0 27 16.5 43t41.5 16q27 0 43 -16.5t16 -42.5q0 -23 -18 -41q-16 -16 -41 -16.5t-41.5 16t-16.5 41.5z" />
<glyph unicode=";" d="M178 -104q47 51 68 104q-23 0 -41 18q-16 16 -17 39q0 27 16.5 43.5t41 16.5t43.5 -19q16 -16 16 -49q0 -78 -100 -180zM188 924q0 27 16.5 43t41.5 16q27 0 43 -16.5t16 -42.5q0 -23 -18 -41q-16 -16 -41 -16.5t-41.5 16t-16.5 41.5z" />
<glyph unicode="&#x3c;" horiz-adv-x="894" d="M123 471v41l590 461l22 -27l-579 -454l579 -455l-22 -27z" />
<glyph unicode="=" horiz-adv-x="950" d="M123 379v41h706v-41h-706zM123 645v41h706v-41h-706z" />
<glyph unicode="&#x3e;" horiz-adv-x="894" d="M162 37l579 455l-579 454l22 27l590 -461v-41l-590 -461z" />
<glyph unicode="?" horiz-adv-x="835" d="M78 1407q86 27 203 27q218 0 337 -142q121 -143 121 -391q0 -70 -110 -137q-113 -70 -373 -160q-20 -20 -20 -72q-4 -96 36 -206l-36 -15q-43 123 -43 228q0 33 18 63.5t45 38.5q324 121 428 207q14 27 14 70q0 199 -110 339q-109 139 -307 140q-109 0 -152 -8l-4 -215 h-29zM262 57q0 27 16.5 43.5t40.5 16.5q27 0 43.5 -16.5t16.5 -43.5q0 -25 -16.5 -41t-43.5 -16q-23 0 -40 18q-17 16 -17 39z" />
<glyph unicode="@" horiz-adv-x="1753" d="M164 541q0 283 202.5 487.5t532.5 204.5q307 0 499.5 -180.5t192.5 -473t-151 -456.5h-279l-10 84q-109 -94 -277 -94q-158 0 -251 106q-92 104 -93 293q0 193 92.5 311.5t272.5 118.5q139 0 256 -92l12 84h25v-770l233 -10q129 137 129 426q0 283 -178 448 q-176 164 -473 164q-145 0 -250 -35q-88 -29 -223 -110q-221 -221 -221 -502q0 -305 194 -482q193 -174 525 -174h264l2 -14q-147 -23 -285 -22q-338 0 -538 186q-203 187 -203 502zM571 512q0 -172 80 -268q80 -94 223 -94q158 0 273 96v559q-100 100 -256 100 q-131 0 -240 -84q-80 -125 -80 -309z" />
<glyph unicode="A" horiz-adv-x="1488" d="M20 0l3 20l159 11l527 1403h67l531 -1401l163 -13l-2 -20h-409l2 20l203 11l-158 415h-727l-156 -415l205 -11l-2 -20h-406zM391 483h701l-347 918h-10z" />
<glyph unicode="B" horiz-adv-x="1257" d="M102 0l2 20l213 11v1372l-200 10l2 21h565q188 0 293 -103q109 -104 108 -268q0 -273 -233 -338q123 -35 192 -127q72 -96 72 -223q0 -166 -102 -269q-106 -106 -340 -106h-572zM358 41q78 -10 295 -10q244 0 369 119q53 89 53 212v13q-4 147 -100 239q-96 90 -260 91 h-357v-664zM358 741h357q121 0 213 45q117 106 116 275q0 147 -98 242q-100 96 -270 96h-318v-658z" />
<glyph unicode="C" horiz-adv-x="1404" d="M143 707q0 356 183 550q180 193 473 193q262 0 444 -74l6 -30l-14 -283l-29 2l2 272q-150 76 -407 76q-174 0 -361 -96q-135 -117 -194 -256q-61 -143 -62 -354q0 -317 160 -502t447 -185q147 0 253 25q98 23 226 94l14 -30q-113 -68 -231 -97q-115 -29 -262 -28 q-303 0 -475.5 192.5t-172.5 530.5z" />
<glyph unicode="D" horiz-adv-x="1519" d="M102 0l2 20l203 11v1372l-190 10l2 21h485q369 0 571.5 -184.5t202.5 -530.5q0 -336 -182 -529q-180 -190 -532 -190h-562zM348 37q49 -6 316 -6q180 0 292 43q119 45 215 129q86 113 125 225q41 117 41 291q0 338 -190.5 510t-560.5 172q-180 0 -238 -8v-1356z" />
<glyph unicode="E" horiz-adv-x="1200" d="M143 1413l2 21h914l-6 -332l-25 2l-12 297h-635v-660h442l19 191l24 -2v-398l-24 3l-19 174h-442v-676h670l10 305l24 -2l5 -336h-945l2 20l193 11v1372z" />
<glyph unicode="F" horiz-adv-x="1150" d="M143 1413l2 21h906l-7 -330l-24 2l-12 291h-631v-662h416l14 164l24 -2v-385l-24 2l-14 184h-416v-667l264 -11l-2 -20h-494l2 20l189 11v1372z" />
<glyph unicode="G" horiz-adv-x="1527" d="M143 713q0 356 194.5 546.5t512.5 190.5q227 0 418 -88l14 -29l-33 -286l-28 2l18 284q-55 29 -174 56q-111 25 -215 24q-184 0 -371 -78q-295 -201 -295 -624q0 -313 162 -502t436 -189q258 0 439 164v363l-328 12v23h532v-27l-163 -8v-547h-29l-10 137 q-184 -154 -441 -153q-289 0 -465 200q-174 199 -174 529z" />
<glyph unicode="H" horiz-adv-x="1540" d="M102 0l2 20l177 11v1372l-162 10l2 21h373l-2 -21l-170 -10v-651h897v651l-168 10l2 21h379l-2 -21l-170 -10v-1372l180 -11l-2 -20h-394l3 20l172 11v684h-897v-684l180 -11l-2 -20h-398z" />
<glyph unicode="I" horiz-adv-x="768" d="M164 1413l2 21h430l-2 -21l-191 -10v-1372l203 -11l-2 -20h-438l2 20l190 11v1372z" />
<glyph unicode="J" horiz-adv-x="768" d="M158 1413l2 21h446l-2 -21l-198 -10v-1241q0 -147 -46 -236q-47 -92 -170 -184l-20 22q113 94 149 173q41 88 41 215v1251z" />
<glyph unicode="K" horiz-adv-x="1361" d="M143 1413l2 21h424l-2 -21l-184 -10v-666h68l622 666l-151 10l2 21h338l-2 -21l-136 -10l-632 -674v-14q131 -158 348 -373q209 -209 356 -311l127 -11l-2 -20h-150q-139 104 -358 319q-203 199 -362 383h-68v-671l199 -11l-2 -20h-416l2 20l172 11v1372z" />
<glyph unicode="L" horiz-adv-x="1095" d="M143 0l2 20l193 11v1372l-170 10l2 21h436l-2 -21l-225 -10v-1370h625l14 346l26 -2l3 -377h-904z" />
<glyph unicode="M" horiz-adv-x="2041" d="M123 0l2 20l172 11l119 1372l-164 10l2 21h414l-2 -21l-174 -10l542 -1311h4l525 1311l-146 10l2 21h357l-2 -21l-146 -10l125 -1372l168 -11v-20h-389l2 20l172 11l-113 1345l-532 -1335h-53l-553 1337l-113 -1347l172 -11l-2 -20h-389z" />
<glyph unicode="N" horiz-adv-x="1769" d="M143 1413l2 21h248l1028 -1371v1340l-196 10l2 21h432l-2 -21l-195 -10v-1403h-39l-1032 1372v-1341l219 -11l-2 -20h-461l3 20l200 11v1372z" />
<glyph unicode="O" horiz-adv-x="1624" d="M143 698q0 338 184.5 545t475.5 207q324 0 502 -200.5t178 -532.5q0 -348 -180.5 -540.5t-497.5 -192.5q-286 0 -473 196q-189 199 -189 518zM184 696q0 -295 178.5 -483t442.5 -188q152 0 262 43q119 47 213 129q162 229 162 518q0 313 -166 503.5t-477 190.5 q-227 0 -416 -149q-199 -238 -199 -564z" />
<glyph unicode="P" horiz-adv-x="1230" d="M143 0l2 23l187 8v1372l-189 10l2 21h545q197 0 309 -109q111 -109 111 -299q0 -217 -108.5 -313.5t-346.5 -96.5h-282v-585l233 -11l-2 -20h-461zM373 653h307q174 0 293 70q94 113 94 303q0 174 -100 274q-96 96 -285 97h-309v-744z" />
<glyph unicode="Q" horiz-adv-x="1624" d="M143 698q0 338 184.5 545t475.5 207q324 0 502 -200.5t178 -532.5q0 -248 -97 -422q-96 -172 -272 -252q98 -125 309 -236q188 -96 463 -129l-6 -36q-272 29 -467 127q-223 113 -340 258q-127 -43 -268 -43q-286 0 -473 196q-189 199 -189 518zM184 696 q0 -295 178.5 -483t442.5 -188q152 0 262 43q119 47 213 129q162 229 162 518q0 313 -166 503.5t-477 190.5q-227 0 -416 -149q-199 -238 -199 -564z" />
<glyph unicode="R" horiz-adv-x="1394" d="M150 1413l2 21h536q217 0 330 -113q115 -115 115 -305q0 -158 -101 -258q-102 -102 -264 -127q55 -135 174 -324q111 -178 201 -276l139 -11l-2 -20h-162q-96 109 -209 289q-117 184 -186 338q-10 -2 -51 -2h-285v-594l188 -11l-2 -20h-413l2 20l184 11v1372zM387 662 h188q175 0 265 24q86 25 170 94q88 113 88 234q0 176 -106.5 280.5t-321.5 104.5h-283v-737z" />
<glyph unicode="S" horiz-adv-x="1243" d="M205 88l35 373l30 -2l-24 -371q154 -68 346 -68q180 0 323 95q84 102 84 200q0 131 -81 222q-84 92 -287 170q-230 86 -320 172t-90 231q0 158 127 248q129 92 318 92q143 0 313 -47l8 -23l-26 -250l-31 3l12 237q-126 43 -276 43q-168 0 -314 -90q-86 -94 -86 -213 q0 -137 76 -206.5t295 -155.5q213 -82 309 -187q94 -104 94 -246q0 -133 -118 -233q-117 -98 -330 -98q-127 0 -207 18q-72 16 -174 59z" />
<glyph unicode="T" horiz-adv-x="1251" d="M61 1434h1131l-6 -338l-25 2l-10 301h-504v-1368l215 -11l-2 -20h-467l2 20l211 11v1368h-506l-8 -303l-24 -2z" />
<glyph unicode="U" horiz-adv-x="1576" d="M135 1413l2 21h400l-2 -21l-175 -10v-846q0 -281 101 -407q101 -129 350 -130q213 0 344 109q52 77 74 172q23 100 22 256v846l-174 10l2 21h387l-2 -21l-176 -10v-862q0 -285 -102 -422q-101 -135 -375 -135q-264 0 -379 139q-113 137 -113 418v862z" />
<glyph unicode="V" horiz-adv-x="1552" d="M20 1413l3 21h440l-2 -21l-232 -10l547 -1366h4l537 1366l-201 10l2 21h416l-2 -21l-174 -10l-553 -1403h-57l-564 1403z" />
<glyph unicode="W" horiz-adv-x="2234" d="M20 1413l3 21h409l-2 -21l-201 -10l461 -1370h2l387 1124l-86 246l-182 10l2 21h477l-2 -21l-250 -10l482 -1370h4l469 1370l-217 10l2 21h438l-2 -21l-180 -10l-482 -1403h-65l-387 1098l-377 -1098h-66l-473 1403z" />
<glyph unicode="X" horiz-adv-x="1458" d="M20 0l3 20l151 11l510 721l-494 651l-133 10l2 21h344l-2 -21l-159 -10l471 -621l446 621l-176 10l2 21h375l-2 -21l-150 -10l-473 -651l549 -721l156 -11l-2 -20h-389l2 20l180 11l-524 690l-488 -690l174 -11l-2 -20h-371z" />
<glyph unicode="Y" horiz-adv-x="1380" d="M20 1413l3 21h415l-2 -21l-203 -10l451 -737h4l467 737l-190 10l2 21h395l-2 -21l-162 -10l-496 -785v-587l195 -11l-2 -20h-444l2 20l209 11v592l-478 780z" />
<glyph unicode="Z" horiz-adv-x="1476" d="M184 39l1061 1358h-971l-10 -350l-28 2l-15 385h1067l6 -39l-1058 -1358h995l16 356l29 -2l2 -391h-1090z" />
<glyph unicode="[" horiz-adv-x="669" d="M256 -176v1659h252v-37h-211v-1585h211v-37h-252z" />
<glyph unicode="\" horiz-adv-x="548" d="M72 1536h41l366 -1679h-41z" />
<glyph unicode="]" horiz-adv-x="669" d="M164 -139h211v1585h-211v37h252v-1659h-252v37z" />
<glyph unicode="^" horiz-adv-x="987" d="M225 1155l248 322h41l248 -322l-37 -10l-231 287l-232 -287z" />
<glyph unicode="_" horiz-adv-x="1114" d="M41 -211h1034v-37h-1034v37z" />
<glyph unicode="`" horiz-adv-x="1124" d="M360 1466l50 11l247 -322l-36 -10z" />
<glyph unicode="a" horiz-adv-x="1130" d="M113 227q0 125 39 209q242 53 655 72v115q0 160 -76 251q-74 90 -225 91q-131 0 -260 -37l-2 -242l-33 -2l-18 242l6 28q141 45 307 45q342 0 342 -372v-596l182 -11l-2 -20h-211l-10 190q-176 -207 -408 -206q-141 0 -213 69q-73 70 -73 174zM154 238q0 -96 63 -158 q65 -61 184 -62q125 0 232 66q102 63 174 160v229q-424 -14 -625 -67q-28 -80 -28 -168z" />
<glyph unicode="b" horiz-adv-x="1138" d="M61 1561v22l170 14h43l7 -51v-690q66 61 165 102q98 41 187 41q169 0 276 -122q109 -125 109 -375q0 -238 -119 -377q-121 -141 -342 -141q-205 0 -317 69v1508h-179zM281 80q129 -59 276 -60q172 0 303 99q57 76 86 164q27 82 27 217q0 233 -94 350q-92 113 -248 113 q-102 0 -219 -52q-66 -41 -131 -110v-721z" />
<glyph unicode="c" horiz-adv-x="1024" d="M123 502q0 225 127 362q127 135 325 135q188 0 306 -67l8 -37l-31 -227l-33 2l21 235q-23 12 -117 37q-82 20 -151 21q-141 0 -279 -91q-135 -152 -135 -368q0 -227 100 -354q100 -129 291 -130q188 0 330 97l16 -29q-147 -104 -348 -104q-203 0 -317 139 q-113 137 -113 379z" />
<glyph unicode="d" horiz-adv-x="1150" d="M123 481q0 250 125 383q126 135 325 135q186 0 299 -84v646h-178v22l170 14h43l6 -51v-1515l179 -11l-2 -20h-207l-11 96q-121 -113 -321 -112q-186 0 -307 139t-121 358zM164 483q0 -199 108 -331q106 -131 281 -132q109 0 219 43q41 27 100 82v723q-113 94 -299 95 q-123 0 -251 -68q-158 -164 -158 -412z" />
<glyph unicode="e" horiz-adv-x="1050" d="M123 498q0 224 123 362q123 139 319 139q178 0 276.5 -118.5t98.5 -341.5l-12 -54l-764 -10q6 -213 114.5 -334t297 -121t339.5 107l17 -27q-137 -117 -357 -116q-211 0 -331.5 139t-120.5 375zM164 512l737 14q0 211 -90 324q-88 109 -246 113q-127 0 -254 -78 q-143 -156 -147 -373z" />
<glyph unicode="f" horiz-adv-x="776" d="M82 958l2 25h207v168q0 182 88 283q90 102 239 102q119 0 228 -35l14 -37l-18 -194l-29 2l12 201q-98 33 -206.5 32.5t-212.5 -80.5q-74 -98 -74 -274v-168h309l-2 -25l-307 -12v-915l205 -11l-2 -20h-400l2 20l154 11v915z" />
<glyph unicode="g" horiz-adv-x="1095" d="M119 -223q0 129 98 233q-55 37 -55 133q0 109 102 248q-113 86 -112 266q0 143 94 244q92 98 248 98q168 0 260 -96l102 58l35 172h29l-25 -195l-125 -53q68 -83 68 -221q0 -164 -90 -252q-94 -90 -250 -90q-119 0 -201 47q-94 -137 -94 -226q0 -123 143 -123h426 q117 0 170 -40.5t53 -131.5q0 -150 -135 -241.5t-354 -91.5q-188 0 -287 73q-100 76 -100 189zM160 -225q0 -95 92 -160q90 -63 256 -64q203 0 325.5 80t122.5 217q0 74 -43 105t-145 31h-440q-39 0 -76 10q-92 -96 -92 -219zM193 655q0 -139 79.5 -219t223.5 -80 q123 0 225 68q76 88 76 240q0 141 -80 221q-78 78 -223 78q-86 0 -197 -56q-104 -105 -104 -252z" />
<glyph unicode="h" horiz-adv-x="1261" d="M102 1561v22l170 14h43l7 -51v-741q123 195 344 194q360 0 360 -381v-587l176 -11l-2 -20h-215v614q0 346 -319 347q-96 0 -199 -43q-96 -88 -145 -185v-702l178 -11l-2 -20h-383l2 20l164 11v1530h-179z" />
<glyph unicode="i" horiz-adv-x="595" d="M123 963l2 20h201l6 -43v-909l164 -11l-2 -20h-355l2 20l150 11v921zM236 1319q0 18 18 37q20 20 37 20q18 0 38.5 -20.5t20.5 -38.5q0 -20 -18.5 -38.5t-39 -18.5t-38.5 18t-18 41z" />
<glyph unicode="j" horiz-adv-x="573" d="M102 -281q96 59 142 138q47 82 47 219v876l-168 11l2 20h201l6 -43v-854q0 -141 -49.5 -233.5t-163.5 -157.5zM236 1319q0 18 18 37q20 20 37 20q18 0 38.5 -20.5t20.5 -38.5q0 -20 -18.5 -38.5t-39 -18.5t-38.5 18t-18 41z" />
<glyph unicode="k" horiz-adv-x="1077" d="M102 1561v22l170 14h43l7 -51v-1005h77l365 411l-129 11l2 20h293l-2 -20l-115 -11l-375 -420v-16q169 -233 449 -485l151 -11l-2 -20h-170q-258 227 -467 504h-77v-473l178 -11l-2 -20h-383l2 20l164 11v1530h-179z" />
<glyph unicode="l" horiz-adv-x="620" d="M123 1561v22l170 14h43l6 -51v-1515l178 -11l-2 -20h-383l2 20l164 11v1530h-178z" />
<glyph unicode="m" horiz-adv-x="1923" d="M82 946v25l172 12h37l10 -63v-113q123 193 338 192q274 0 336 -227q63 113 149 170t209 57q354 0 355 -381v-587l176 -11l-2 -20h-215v614q0 166 -72 256.5t-242 90.5q-95 0 -190 -43q-100 -88 -156 -203q6 -47 6 -97v-587l176 -11l-2 -20h-215v614q0 166 -71.5 256.5 t-241.5 90.5q-95 0 -190 -43q-90 -76 -148 -185v-702l164 -11l-2 -20h-352l2 20l147 11v915h-178z" />
<glyph unicode="n" horiz-adv-x="1241" d="M82 946v25l172 12h37l10 -65v-113q123 195 344 194q360 0 361 -381v-587l176 -11l-2 -20h-215v614q0 346 -320 347q-101 0 -196 -43q-92 -77 -148 -185v-702l164 -11l-2 -20h-352l2 20l147 11v915h-178z" />
<glyph unicode="o" horiz-adv-x="1122" d="M123 492q0 242 127 374.5t328 132.5q184 0 303 -135q121 -137 120 -379q0 -229 -108 -366q-106 -135 -313 -135q-223 0 -340 139.5t-117 368.5zM168 489q0 -209 106 -339q104 -129 306 -130q133 0 260 86q61 82 90 166q29 82 28 215q0 219 -110 349q-109 127 -277 127 q-137 0 -256 -76q-147 -150 -147 -398z" />
<glyph unicode="p" horiz-adv-x="1181" d="M82 946v25l172 12h37l10 -147q135 164 367 163q76 0 137 -26q68 -29 125 -80t94 -148q37 -94 37 -219q0 -255 -105 -399q-104 -143 -299 -143q-224 0 -356 104v-528l164 -11l-2 -20h-352l2 20l147 11v1386h-178zM301 133q127 -113 354 -113q137 0 238 82q68 86 96 174 q31 92 31 242q0 231 -106.5 338t-258.5 107q-135 0 -243 -60q-70 -59 -111 -125v-645z" />
<glyph unicode="q" horiz-adv-x="1153" d="M123 500q0 215 127 358q127 141 311 141q182 0 311 -112l11 96h28v-1423l162 -11l-2 -20h-360l2 20l157 11v532q-145 -109 -313 -108q-211 0 -324 137q-110 135 -110 379zM164 500q0 -223 98 -353q96 -127 297 -127q104 0 225 50q63 49 86 71v697q-113 125 -311 125 q-123 0 -264 -103q-131 -145 -131 -360z" />
<glyph unicode="r" horiz-adv-x="823" d="M82 946v25l172 12h37q10 -66 10 -174q80 86 201 135q127 53 254 55l8 -30l-8 -215l-27 2l-6 207q-274 -25 -422 -205v-727l164 -11l-2 -20h-352l2 20l147 11v915h-178z" />
<glyph unicode="s" horiz-adv-x="913" d="M143 86l35 217l29 -2l-21 -231q98 -49 269 -50q135 0 225 50q51 63 51 155q0 76 -53 131q-55 59 -211 123t-225 127q-68 61 -68 154q0 121 96.5 180t212.5 59q125 0 267 -43l4 -22l-27 -195l-33 4l15 187q-92 33 -230 33q-104 0 -209 -56q-51 -53 -51 -141q0 -78 62 -133 q55 -51 202 -119q160 -72 224 -129q66 -59 65 -160q0 -115 -82 -178t-235 -63q-184 0 -305 57z" />
<glyph unicode="t" horiz-adv-x="710" d="M82 958l2 25h203l16 301l25 2v-303h309l-2 -25l-307 -6v-749q0 -80 43 -125t106 -45h172l2 -15q-92 -18 -172 -18q-92 0 -141 59q-51 61 -51 162v731z" />
<glyph unicode="u" horiz-adv-x="1282" d="M102 946v21l166 16h47l9 -63v-564q0 -162 82 -250q80 -86 202 -86q145 0 271 60q76 70 120 135v731h-180v21l164 16h51l6 -63v-889l162 -11l-2 -20h-188l-13 156q-139 -172 -391 -172q-141 0 -233 96t-92 266v600h-181z" />
<glyph unicode="v" horiz-adv-x="1157" d="M10 963l2 20h359l-2 -20l-174 -11l389 -919h8l373 919l-160 11l2 20h342l-2 -20l-137 -11l-392 -952h-65l-403 952z" />
<glyph unicode="w" horiz-adv-x="1603" d="M10 963l2 20h328l-2 -20l-152 -11l320 -913h6l276 715l-67 198l-154 11l2 20h408l-2 -20l-211 -11l315 -913h6l324 913l-166 11l2 20h350l-2 -20l-143 -11l-340 -952h-59l-244 700l-270 -700h-58l-338 952z" />
<glyph unicode="x" horiz-adv-x="1089" d="M31 0l2 20l129 11l348 481l-340 440l-125 11l2 20h322l-2 -20l-140 -11l314 -409l295 409l-146 11l2 20h326l-2 -20l-131 -11l-322 -440l369 -481l129 -11l-2 -20h-330l2 20l152 11l-351 452l-323 -452l162 -11l-2 -20h-338z" />
<glyph unicode="y" horiz-adv-x="1181" d="M10 963l2 20h330l-2 -20l-150 -11l369 -915h31l373 915l-162 11l2 20h371l-3 -20l-163 -11l-451 -1079q-125 -297 -379 -297h-135l-8 14l6 29l10 6l129 -14q238 0 348 276l47 117l-30 -4l-21 23l-379 929z" />
<glyph unicode="z" horiz-adv-x="1064" d="M133 45l737 901h-673l-2 -291l-31 2l-14 295l6 31h751l6 -45l-733 -901h709l6 299l31 -2l8 -297l-4 -37h-793z" />
<glyph unicode="{" horiz-adv-x="671" d="M143 621v51q43 0 78 28q33 27 33 88v492q0 203 156 203h100v-37h-96q-61 0 -90 -37q-29 -39 -29 -133v-494q0 -57 -33 -96q-31 -37 -65 -37v-6q31 0 65 -47q33 -45 33 -109v-497q0 -129 102 -129h113v-37h-117q-68 0 -104 43q-35 41 -35 117v495q0 63 -33 102.5t-78 39.5 z" />
<glyph unicode="|" horiz-adv-x="428" d="M195 -143v1679h41v-1679h-41z" />
<glyph unicode="}" horiz-adv-x="671" d="M164 -139h96q61 0 90 39t29 131v493q0 59 30.5 96t67.5 37v7q-31 0 -65 47q-33 45 -33 108v498q0 129 -103 129h-112v37h117q68 0 104 -43q35 -41 35 -117v-496q0 -63 32.5 -102t77.5 -39v-51q-43 0 -77 -29q-33 -27 -33 -88v-491q0 -203 -156 -203h-100v37z" />
<glyph unicode="~" horiz-adv-x="1189" d="M215 1257q117 139 174 140q41 0 207 -72t207 -72l131 133l29 -14q-111 -150 -175 -149q-59 0 -221 71q-158 70 -207 70l-116 -123z" />
<glyph unicode="&#xa1;" d="M197 969q0 25 16 41t43 16q23 0 41 -18q16 -16 16 -39q0 -27 -16 -43.5t-41 -16.5q-27 0 -43 16.5t-16 43.5zM229 -408l2 713l5 404h36l4 -404l3 -713h-50z" />
<glyph unicode="&#xa2;" horiz-adv-x="989" d="M143 502q0 215 113 346q117 135 293 149v185h41v-183q197 0 311 -67l8 -37l-30 -227q-2 0 -7.5 1t-9.5 1h-16l20 235q-20 12 -118 37q-82 20 -158 21v-943q176 0 315 97l17 -29q-144 -101 -332 -104v-154h-41v154q-193 8 -299.5 145t-106.5 373zM184 504q0 -217 92 -346 q92 -127 273 -138v941q-104 -10 -230 -89q-135 -150 -135 -368z" />
<glyph unicode="&#xa3;" horiz-adv-x="1214" d="M119 0l2 20l203 11v626h-150v37h150v185q0 287 108 430q108 141 338 141q154 0 305 -78l4 -29l-28 -215l-23 2l16 218q-147 66 -274 65q-164 0 -295 -96q-80 -125 -94 -221q-16 -109 -16 -402h516v-37h-516v-624h708l12 297l29 -2l4 -328h-999z" />
<glyph unicode="&#xa4;" horiz-adv-x="1202" d="M102 18l197 197q-90 109 -90 270q0 174 92 285l-188 188l26 25l187 -186q104 104 270 104q178 0 287 -104l186 186l21 -20l-187 -187q90 -109 90 -280q0 -168 -84 -277l193 -192l-25 -27l-192 190q-104 -104 -287 -104q-170 0 -279 109l-194 -195zM250 483 q0 -156 100 -260q98 -102 248 -102q156 0 264 90q90 121 90 283q0 168 -94 272q-92 100 -264 100q-123 0 -232 -73q-112 -134 -112 -310z" />
<glyph unicode="&#xa5;" horiz-adv-x="1380" d="M20 1413l3 21h415l-2 -21l-203 -10l451 -737h4l467 737l-190 10l2 21h395l-2 -21l-162 -10l-496 -785v-587l195 -11l-2 -20h-444l2 20l209 11v592l-478 780zM254 629v37h860v-37h-414l-4 -8v-125h420v-37h-860v37h414v125l-4 8h-412z" />
<glyph unicode="&#xa6;" horiz-adv-x="428" d="M195 -143v768h41v-768h-41zM195 774v762h41v-762h-41z" />
<glyph unicode="&#xa7;" horiz-adv-x="1308" d="M184 563q0 98 47 187q41 78 150 182q-125 76 -125 221q0 297 436 297q190 0 375 -66l6 -30l-29 -236h-14q-4 0 -9 1t-7 1l16 232q-126 61 -338 61q-176 0 -323 -70q-72 -84 -72 -184q0 -92 53 -149q51 -53 191 -101l364 -118q221 -74 221 -306q0 -193 -188 -356 q139 -78 139 -223.5t-121 -216.5q-127 -76 -331 -76q-186 0 -365 65l-6 33l39 269h12q4 0 9 -2l5 -1l-26 -270q145 -57 330 -57q129 0 202 20q77 22 148 68q63 76 63 166q0 96 -55 149q-53 51 -219 101l-338 108q-240 77 -240 301zM225 565q0 -203 217 -270l410 -131 q33 -10 51 -21q139 131 170 240q12 46 12 98q0 98 -45 166q-43 63 -153 103l-361 120q-84 27 -114 45q-100 -100 -143.5 -180t-43.5 -170z" />
<glyph unicode="&#xa8;" horiz-adv-x="831" d="M145 1313q0 20 17 37q20 20 38.5 20t39 -20.5t20.5 -38.5q0 -20 -18.5 -39t-38.5 -19q-23 0 -41 19q-17 16 -17 41zM575 1313q0 20 17 37q20 20 38.5 20t39 -20.5t20.5 -38.5q0 -20 -18.5 -39t-38.5 -19q-23 0 -41 19q-17 16 -17 41z" />
<glyph unicode="&#xa9;" horiz-adv-x="1662" d="M186 715q0 295 176.5 471t468.5 176q297 0 474 -176q174 -174 174 -471q0 -287 -176 -467q-176 -178 -472 -178q-287 0 -466 180q-179 178 -179 465zM227 714.5q0 -274.5 164 -440.5q166 -168 440.5 -168t440.5 168t166 441q0 281 -162 444q-162 166 -445 166 q-276 0 -440 -168t-164 -442.5zM498 702q0 172 96 268.5t246 96.5q139 0 229 -39l6 -18l-14 -148l-29 2l2 137q-76 35 -196 35q-82 0 -174 -43q-121 -109 -121 -291q0 -150 75 -233q78 -86 218 -86q137 0 243 57l13 -24q-114 -68 -258 -68q-156 0 -246 96t-90 258z" />
<glyph unicode="&#xaa;" horiz-adv-x="917" d="M102 473v31l695 2v-31zM119 825q0 92 28 156q168 37 490 53v84q0 248 -221 248q-98 0 -191 -27l-2 -176q-2 0 -7 -1t-9 -1h-14l-15 180l6 23q98 33 232 33q260 0 260 -277v-438l135 -8l-2 -19h-162l-10 138q-129 -150 -301 -150q-102 0 -159.5 53t-57.5 129zM158 834 q0 -72 47 -115q49 -45 135 -45q168 0 297 160v172q-328 -16 -459 -52q-20 -54 -20 -120z" />
<glyph unicode="&#xab;" horiz-adv-x="1130" d="M115 475v35q43 45 129 143l141 172l129 156l29 -20l-174 -218l-215 -251l215 -244l176 -223l-31 -23l-125 156q-106 135 -145 180q-57 69 -129 137zM555 475v35q43 45 129 143q88 102 143 172l127 156l29 -20l-174 -218l-215 -251l215 -244l176 -223l-31 -23l-123 156 l-145 180q-49 59 -131 137z" />
<glyph unicode="&#xac;" horiz-adv-x="1196" d="M143 674v37h830v-437h-41v400h-789z" />
<glyph unicode="&#xad;" horiz-adv-x="909" d="M143 520v41h625v-41h-625z" />
<glyph unicode="&#xae;" horiz-adv-x="1662" d="M186 715q0 295 176.5 471t468.5 176q297 0 474 -176q174 -174 174 -471q0 -287 -176 -467q-176 -178 -472 -178q-287 0 -466 180q-179 178 -179 465zM227 714.5q0 -274.5 164 -440.5q166 -168 440.5 -168t440.5 168t166 441q0 281 -162 444q-162 166 -445 166 q-276 0 -440 -168t-164 -442.5zM555 1047l2 22h285q111 0 172 -55.5t61 -149.5q0 -78 -51 -129q-47 -47 -129 -63q37 -76 88 -154q53 -80 96 -123l72 -6l-2 -22h-96q-51 53 -107 139q-59 92 -92 162h-158v-273l97 -6l-2 -22h-230v22l94 6v645zM696 696h129q98 0 154 43 q57 45 57 121q0 80 -53 129q-52 49 -154 49h-133v-342z" />
<glyph unicode="&#xaf;" horiz-adv-x="1028" d="M172 1268v37h672v-37h-672z" />
<glyph unicode="&#xb0;" horiz-adv-x="806" d="M113 1118q0 121 86 207t204 86q121 0 207 -86t86 -207t-86 -207q-84 -84 -207 -84q-121 0 -204 84q-86 86 -86 207zM154 1118q0 -113 75 -184q72 -70 177 -70q94 0 190 66q59 96 59 186q0 102 -75 182q-74 76 -174 76q-76 0 -175 -55q-77 -95 -77 -201z" />
<glyph unicode="&#xb1;" horiz-adv-x="950" d="M123 41v41h706v-41h-706zM123 612v37h334v334h37v-334h335v-37h-335v-336h-37v336h-334z" />
<glyph unicode="&#xb2;" horiz-adv-x="772" d="M100 653l123 86q51 37 127 99q80 66 129 120q39 43 84 121q39 66 39 129q0 92 -63 146q-59 51 -181 51q-84 0 -194 -37l-6 -160l-25 2l-8 160l2 19q104 45 235 45q133 0 205 -58q74 -58 74 -166q0 -229 -500 -561v-4h486l8 182l24 -2l3 -211h-560z" />
<glyph unicode="&#xb3;" horiz-adv-x="751" d="M113 659l12 25q92 -49 192 -49q123 0 213 65q43 58 43 129q0 88 -73 140q-72 51 -197 51l-2 22q115 4 186 39q63 66 64 144q0 72 -55 127q-53 53 -156 53q-90 0 -184 -21l-6 -153l-27 2l-4 145l6 25q92 31 219 31q119 0 178 -60q61 -61 62 -147q0 -66 -43 -121t-111 -72 v-6q70 -14 125 -67q53 -49 53 -132q0 -96 -76 -161q-72 -63 -215 -64q-116 0 -204 55z" />
<glyph unicode="&#xb4;" horiz-adv-x="1124" d="M387 1155l248 322l49 -11l-260 -321z" />
<glyph unicode="&#xb5;" horiz-adv-x="1282" d="M102 946v21l166 16h47l9 -65v-562q0 -162 82 -250q80 -86 202 -86q145 0 271 60q76 70 120 135v731h-180v21l164 16h51l6 -63v-889l162 -11l-2 -20h-188l-13 156q-139 -172 -391 -172q-199 0 -284 168v-592l163 -11l-2 -20h-352l2 20l148 11v1386h-181z" />
<glyph unicode="&#xb6;" horiz-adv-x="1017" d="M123 1092q0 154 92 248t248 94h452l-2 -21l-182 -10v-1372l187 -11v-20h-228v1397h-164v-1397h-233l2 20l190 11v719h-22q-156 0 -248 96q-92 95 -92 246z" />
<glyph unicode="&#xb7;" d="M188 442q0 27 16.5 43.5t41.5 16.5q27 0 43 -16.5t16 -43.5q0 -23 -18 -41q-16 -16 -41 -16q-23 0 -41 18q-17 16 -17 39z" />
<glyph unicode="&#xb8;" horiz-adv-x="665" d="M242 -152l100 158h45l-100 -151q74 0 116.5 -31t42.5 -76q0 -129 -190 -199l-14 35q164 59 164 160q0 78 -150 78z" />
<glyph unicode="&#xb9;" horiz-adv-x="538" d="M72 1358l209 76l24 -2v-791l125 -6l-2 -21h-299l2 21l135 6v754l-186 -62z" />
<glyph unicode="&#xba;" horiz-adv-x="915" d="M127 473v31h661v-31h-661zM127 1020q0 182 94 278q94 98 250 99q137 0 229 -99q90 -96 91 -282q0 -174 -80 -273q-82 -100 -238 -100q-168 0 -258 102q-88 101 -88 275zM170 1018q0 -152 78 -248q76 -94 225 -94q102 0 193 63q53 74 67 121q18 57 19 158q0 162 -80 254 t-205 92q-98 0 -188 -53q-109 -119 -109 -293z" />
<glyph unicode="&#xbb;" horiz-adv-x="1130" d="M147 958l31 23l123 -156l148 -180q57 -70 129 -137v-35q-43 -45 -129 -143l-144 -172l-127 -156l-28 21l174 217l215 252l-215 243zM588 958l30 23l123 -156q106 -135 146 -180q49 -59 131 -137v-35q-43 -45 -129 -143l-141 -172l-130 -156l-28 21l174 217l215 252 l-215 243z" />
<glyph unicode="&#xbc;" horiz-adv-x="1525" d="M72 1358l209 76l24 -2v-791l125 -6l-2 -21h-299l2 21l135 6v754l-186 -62zM313 -31l680 1512l33 -17l-678 -1509zM868 238l193 581h35v-14l-193 -569h357v204l10 95h26v-299h144v-29h-144v-180l121 -7l-2 -20h-280l2 20l123 7v180h-388z" />
<glyph unicode="&#xbd;" horiz-adv-x="1601" d="M72 1358l209 76l24 -2v-791l125 -6l-2 -21h-299l2 21l135 6v754l-186 -62zM313 -31l680 1512l33 -17l-678 -1509zM930 39l125 88q35 25 125 98q86 70 129 119q41 47 84 119q39 66 39 131q0 94 -62 145q-59 51 -182 52q-84 0 -195 -37l-6 -160l-24 2l-9 160l2 18 q104 45 236 45q129 0 205 -59q74 -59 73 -164q0 -227 -499 -561v-4h485l8 182l25 -2l2 -211h-559z" />
<glyph unicode="&#xbe;" horiz-adv-x="1628" d="M113 659l12 25q92 -49 192 -49q123 0 213 65q43 58 43 129q0 88 -73 140q-72 51 -197 51l-2 22q115 4 186 39q63 66 64 144q0 72 -55 127q-53 53 -156 53q-90 0 -184 -21l-6 -153l-27 2l-4 145l6 25q92 31 219 31q119 0 178 -60q61 -61 62 -147q0 -66 -43 -121t-111 -72 v-6q70 -14 125 -67q53 -49 53 -132q0 -96 -76 -161q-72 -63 -215 -64q-116 0 -204 55zM481 -31l680 1512l33 -17l-678 -1509zM971 238l192 581h35v-14l-192 -569h356v204l10 95h27v-299h143v-29h-143v-180l121 -7l-2 -20h-281l2 20l123 7v180h-387z" />
<glyph unicode="&#xbf;" horiz-adv-x="835" d="M98 125q0 72 109 137q111 68 375 160q20 20 20 72q4 96 -37 206l37 15q43 -123 43 -228q0 -33 -18.5 -63.5t-44.5 -38.5q-324 -121 -428 -207q-14 -27 -15 -69q0 -199 111 -340q109 -139 307 -140q109 0 152 9l4 215h28l19 -234q-86 -27 -203 -27q-218 0 -338 142 q-121 143 -121 391zM459 969q0 23 18 41q16 16 41 16q20 0 38.5 -18.5t18.5 -38.5q0 -25 -18 -43q-16 -16 -39 -17q-27 0 -43 16.5t-16 43.5z" />
<glyph unicode="&#xc0;" horiz-adv-x="1488" d="M20 0l3 20l159 11l527 1403h67l531 -1401l163 -13l-2 -20h-409l2 20l203 11l-158 415h-727l-156 -415l205 -11l-2 -20h-406zM391 483h701l-347 918h-10zM535 1917l49 10l247 -321l-36 -11z" />
<glyph unicode="&#xc1;" horiz-adv-x="1488" d="M20 0l3 20l159 11l527 1403h67l531 -1401l163 -13l-2 -20h-409l2 20l203 11l-158 415h-727l-156 -415l205 -11l-2 -20h-406zM391 483h701l-347 918h-10zM662 1606l247 321l49 -10l-260 -322z" />
<glyph unicode="&#xc2;" horiz-adv-x="1488" d="M20 0l3 20l159 11l527 1403h67l531 -1401l163 -13l-2 -20h-409l2 20l203 11l-158 415h-727l-156 -415l205 -11l-2 -20h-406zM391 483h701l-347 918h-10zM473 1606l248 321h41l248 -321l-37 -11l-232 287l-231 -287z" />
<glyph unicode="&#xc3;" horiz-adv-x="1488" d="M20 0l3 20l159 11l527 1403h67l531 -1401l163 -13l-2 -20h-409l2 20l203 11l-158 415h-727l-156 -415l205 -11l-2 -20h-406zM369 1708q117 139 174 139q41 0 206.5 -71.5t206.5 -71.5l131 133l29 -14q-111 -150 -174 -150q-59 0 -221 72q-158 70 -207 70l-117 -123z M391 483h701l-347 918h-10z" />
<glyph unicode="&#xc4;" horiz-adv-x="1488" d="M20 0l3 20l159 11l527 1403h67l531 -1401l163 -13l-2 -20h-409l2 20l203 11l-158 415h-727l-156 -415l205 -11l-2 -20h-406zM391 483h701l-347 918h-10zM475 1763q0 18 17 37q18 20 38 21q23 0 41.5 -18.5t18.5 -41.5q0 -20 -18.5 -38.5t-39.5 -18.5q-23 0 -40 18 q-17 16 -17 41zM905 1763q0 18 17 37q18 20 39 21q23 0 41 -18.5t18 -41.5q0 -20 -18.5 -38.5t-38.5 -18.5q-23 0 -41 18q-17 16 -17 41z" />
<glyph unicode="&#xc5;" horiz-adv-x="1488" d="M20 0l3 20l159 11l527 1403h67l531 -1401l163 -13l-2 -20h-409l2 20l203 11l-158 415h-727l-156 -415l205 -11l-2 -20h-406zM391 483h701l-347 918h-10zM573 1777.5q0 69.5 49.5 119t119 49.5t118.5 -49.5t49 -119t-49 -118.5t-118.5 -49t-119 49t-49.5 118.5z M610 1775.5q0 -53.5 39 -92t92.5 -38.5t92 38.5t38.5 92.5q0 49 -40.5 90t-90.5 41q-53 0 -92 -39t-39 -92.5z" />
<glyph unicode="&#xc6;" horiz-adv-x="1867" d="M10 0l2 20l160 11l539 1403h1015l-6 -332l-24 2l-13 297h-634v-660h442l18 191l25 -2v-398l-25 3l-18 174h-442v-676h669l11 305l24 -2l4 -336h-944l2 20l193 11v436h-629l-166 -436l205 -11l-2 -20h-406zM393 504h615v897h-271z" />
<glyph unicode="&#xc7;" horiz-adv-x="1404" d="M143 707q0 356 183 550q180 193 473 193q262 0 444 -74l6 -30l-14 -283l-29 2l2 272q-150 76 -407 76q-174 0 -361 -96q-135 -117 -194 -256q-61 -143 -62 -354q0 -317 160 -502t447 -185q147 0 253 25q98 23 226 94l14 -30q-205 -121 -471 -125l-96 -148q74 0 117 -30.5 t43 -75.5q0 -127 -191 -199l-14 35q164 59 164 160q0 78 -150 77l-14 27l96 154q-293 10 -459 200.5t-166 522.5z" />
<glyph unicode="&#xc8;" horiz-adv-x="1200" d="M143 1413l2 21h914l-6 -332l-25 2l-12 297h-635v-660h442l19 191l24 -2v-398l-24 3l-19 174h-442v-676h670l10 305l24 -2l5 -336h-945l2 20l193 11v1372zM479 1917l49 10l248 -321l-37 -11z" />
<glyph unicode="&#xc9;" horiz-adv-x="1200" d="M143 1413l2 21h914l-6 -332l-25 2l-12 297h-635v-660h442l19 191l24 -2v-398l-24 3l-19 174h-442v-676h670l10 305l24 -2l5 -336h-945l2 20l193 11v1372zM606 1606l248 321l49 -10l-260 -322z" />
<glyph unicode="&#xca;" horiz-adv-x="1200" d="M143 1413l2 21h914l-6 -332l-25 2l-12 297h-635v-660h442l19 191l24 -2v-398l-24 3l-19 174h-442v-676h670l10 305l24 -2l5 -336h-945l2 20l193 11v1372zM418 1606l248 321h41l247 -321l-36 -11l-232 287l-231 -287z" />
<glyph unicode="&#xcb;" horiz-adv-x="1200" d="M143 1413l2 21h914l-6 -332l-25 2l-12 297h-635v-660h442l19 191l24 -2v-398l-24 3l-19 174h-442v-676h670l10 305l24 -2l5 -336h-945l2 20l193 11v1372zM420 1763q0 14 18 37q18 20 37 21q23 0 41.5 -18.5t18.5 -41.5q0 -20 -18.5 -38.5t-39.5 -18.5q-23 0 -41 18 q-16 16 -16 41zM850 1763q0 14 18 37q18 20 37 21q23 0 41.5 -18.5t18.5 -41.5q0 -20 -18.5 -38.5t-39.5 -18.5q-23 0 -41 18q-16 16 -16 41z" />
<glyph unicode="&#xcc;" horiz-adv-x="768" d="M164 1413l2 21h430l-2 -21l-191 -10v-1372l203 -11l-2 -20h-438l2 20l190 11v1372zM174 1917l49 10l248 -321l-37 -11z" />
<glyph unicode="&#xcd;" horiz-adv-x="768" d="M164 1413l2 21h430l-2 -21l-191 -10v-1372l203 -11l-2 -20h-438l2 20l190 11v1372zM301 1606l248 321l49 -10l-260 -322z" />
<glyph unicode="&#xce;" horiz-adv-x="768" d="M113 1606l247 321h41l248 -321l-37 -11l-231 287l-231 -287zM164 1413l2 21h430l-2 -21l-191 -10v-1372l203 -11l-2 -20h-438l2 20l190 11v1372z" />
<glyph unicode="&#xcf;" horiz-adv-x="768" d="M115 1763q0 14 18 37q18 20 37 21q20 0 39 -19q20 -20 20 -40.5t-18 -39t-39 -18.5q-23 0 -41 18q-16 16 -16 41zM164 1413l2 21h430l-2 -21l-191 -10v-1372l203 -11l-2 -20h-438l2 20l190 11v1372zM545 1763q0 14 18 37q18 20 37 21q20 0 39 -19q20 -20 20 -40.5 t-18 -39t-39 -18.5q-23 0 -41 18q-16 16 -16 41z" />
<glyph unicode="&#xd0;" horiz-adv-x="1519" d="M102 0l2 20l203 11v676h-201v34h201v662l-190 10l2 21h485q369 0 571.5 -184.5t202.5 -530.5q0 -336 -182 -529q-180 -190 -532 -190h-562zM348 37q49 -6 316 -6q180 0 292 43q119 45 215 129q86 113 125 225q41 117 41 291q0 338 -190.5 510t-560.5 172q-180 0 -238 -8 v-652h535v-34h-535v-670z" />
<glyph unicode="&#xd1;" horiz-adv-x="1769" d="M143 1413l2 21h248l1028 -1371v1340l-196 10l2 21h432l-2 -21l-195 -10v-1403h-39l-1032 1372v-1341l219 -11l-2 -20h-461l3 20l200 11v1372zM537 1708q117 139 174 139q41 0 206.5 -71.5t206.5 -71.5l131 133l29 -14q-111 -150 -174 -150q-59 0 -221 72q-158 70 -207 70 l-117 -123z" />
<glyph unicode="&#xd2;" horiz-adv-x="1624" d="M143 698q0 338 184.5 545t475.5 207q324 0 502 -200.5t178 -532.5q0 -348 -180.5 -540.5t-497.5 -192.5q-286 0 -473 196q-189 199 -189 518zM184 696q0 -295 178.5 -483t442.5 -188q152 0 262 43q119 47 213 129q162 229 162 518q0 313 -166 503.5t-477 190.5 q-227 0 -416 -149q-199 -238 -199 -564zM592 1917l49 10l248 -321l-37 -11z" />
<glyph unicode="&#xd3;" horiz-adv-x="1624" d="M143 698q0 338 184.5 545t475.5 207q324 0 502 -200.5t178 -532.5q0 -348 -180.5 -540.5t-497.5 -192.5q-286 0 -473 196q-189 199 -189 518zM184 696q0 -295 178.5 -483t442.5 -188q152 0 262 43q119 47 213 129q162 229 162 518q0 313 -166 503.5t-477 190.5 q-227 0 -416 -149q-199 -238 -199 -564zM719 1606l248 321l49 -10l-260 -322z" />
<glyph unicode="&#xd4;" horiz-adv-x="1624" d="M143 698q0 338 184.5 545t475.5 207q324 0 502 -200.5t178 -532.5q0 -348 -180.5 -540.5t-497.5 -192.5q-286 0 -473 196q-189 199 -189 518zM184 696q0 -295 178.5 -483t442.5 -188q152 0 262 43q119 47 213 129q162 229 162 518q0 313 -166 503.5t-477 190.5 q-227 0 -416 -149q-199 -238 -199 -564zM530 1606l248 321h41l248 -321l-37 -11l-231 287l-232 -287z" />
<glyph unicode="&#xd5;" horiz-adv-x="1624" d="M143 698q0 338 184.5 545t475.5 207q324 0 502 -200.5t178 -532.5q0 -348 -180.5 -540.5t-497.5 -192.5q-286 0 -473 196q-189 199 -189 518zM184 696q0 -295 178.5 -483t442.5 -188q152 0 262 43q119 47 213 129q162 229 162 518q0 313 -166 503.5t-477 190.5 q-227 0 -416 -149q-199 -238 -199 -564zM426 1708q117 139 174 139q41 0 207 -71.5t207 -71.5l131 133l29 -14q-111 -150 -175 -150q-61 0 -223 72q-158 70 -205 70l-116 -123z" />
<glyph unicode="&#xd6;" horiz-adv-x="1624" d="M143 698q0 338 184.5 545t475.5 207q324 0 502 -200.5t178 -532.5q0 -348 -180.5 -540.5t-497.5 -192.5q-286 0 -473 196q-189 199 -189 518zM184 696q0 -295 178.5 -483t442.5 -188q152 0 262 43q119 47 213 129q162 229 162 518q0 313 -166 503.5t-477 190.5 q-227 0 -416 -149q-199 -238 -199 -564zM532 1763q0 18 17 37q18 20 38.5 20.5t39.5 -18.5q20 -20 20 -40.5t-18.5 -39t-38.5 -18.5q-23 0 -41 18q-17 16 -17 41zM963 1763q0 14 18 37q18 20 37 21q20 0 39 -19q20 -20 20 -40.5t-18.5 -39t-39 -18.5t-38.5 18t-18 41z" />
<glyph unicode="&#xd7;" horiz-adv-x="950" d="M213 289l236 235l-236 238l27 24l235 -235l238 237l24 -26l-237 -238l237 -235l-24 -27l-238 238l-235 -236z" />
<glyph unicode="&#xd8;" horiz-adv-x="1624" d="M143 698q0 338 184.5 545t475.5 207q262 0 432 -137l170 248l33 -23l-172 -250q217 -199 217 -571q0 -348 -180.5 -540.5t-497.5 -192.5q-203 0 -365 104l-143 -209l-35 25l144 209q-121 90 -193 243q-70 147 -70 342zM184 696q0 -172 66 -315q66 -141 182 -231l778 1130 q-160 129 -411 129q-227 0 -416 -149q-199 -238 -199 -564zM467 125q145 -100 338 -100q152 0 262 43q119 47 213 129q162 229 162 518q0 352 -201 536z" />
<glyph unicode="&#xd9;" horiz-adv-x="1576" d="M135 1413l2 21h400l-2 -21l-175 -10v-846q0 -281 101 -407q101 -129 350 -130q213 0 344 109q52 77 74 172q23 100 22 256v846l-174 10l2 21h387l-2 -21l-176 -10v-862q0 -285 -102 -422q-101 -135 -375 -135q-264 0 -379 139q-113 137 -113 418v862zM602 1917l49 10 l248 -321l-37 -11z" />
<glyph unicode="&#xda;" horiz-adv-x="1576" d="M135 1413l2 21h400l-2 -21l-175 -10v-846q0 -281 101 -407q101 -129 350 -130q213 0 344 109q52 77 74 172q23 100 22 256v846l-174 10l2 21h387l-2 -21l-176 -10v-862q0 -285 -102 -422q-101 -135 -375 -135q-264 0 -379 139q-113 137 -113 418v862zM729 1606l248 321 l49 -10l-260 -322z" />
<glyph unicode="&#xdb;" horiz-adv-x="1576" d="M135 1413l2 21h400l-2 -21l-175 -10v-846q0 -281 101 -407q101 -129 350 -130q213 0 344 109q52 77 74 172q23 100 22 256v846l-174 10l2 21h387l-2 -21l-176 -10v-862q0 -285 -102 -422q-101 -135 -375 -135q-264 0 -379 139q-113 137 -113 418v862zM541 1606l247 321 h41l248 -321l-37 -11l-231 287l-231 -287z" />
<glyph unicode="&#xdc;" horiz-adv-x="1576" d="M135 1413l2 21h400l-2 -21l-175 -10v-846q0 -281 101 -407q101 -129 350 -130q213 0 344 109q52 77 74 172q23 100 22 256v846l-174 10l2 21h387l-2 -21l-176 -10v-862q0 -285 -102 -422q-101 -135 -375 -135q-264 0 -379 139q-113 137 -113 418v862zM543 1763 q0 14 18 37q18 20 37 21q20 0 39 -19q20 -20 20 -40.5t-18 -39t-39 -18.5q-23 0 -41 18q-16 16 -16 41zM973 1763q0 14 18 37q18 20 37 21q20 0 39 -19q20 -20 20 -40.5t-18 -39t-39 -18.5q-23 0 -41 18q-16 16 -16 41z" />
<glyph unicode="&#xdd;" horiz-adv-x="1380" d="M20 1413l3 21h415l-2 -21l-203 -10l451 -737h4l467 737l-190 10l2 21h395l-2 -21l-162 -10l-496 -785v-587l195 -11l-2 -20h-444l2 20l209 11v592l-478 780zM618 1606l248 321l49 -10l-260 -322z" />
<glyph unicode="&#xde;" horiz-adv-x="1236" d="M143 1413l2 21h430l-2 -21l-194 -10v-266h317q195 0 307.5 -108.5t112.5 -299.5q0 -215 -110 -313q-109 -96 -344 -97h-283v-288l207 -11l-2 -20h-439l2 20l191 11v1372zM379 356h307q174 0 293 70q94 113 94 303q0 174 -100 275q-96 96 -285 96h-309v-744z" />
<glyph unicode="&#xdf;" horiz-adv-x="1357" d="M82 958l2 25h207v168q0 178 112 270q114 92 314 92q180 0 278 -114t99 -344q0 -31 -13 -39q-12 -9 -55 -19q-195 -39 -287 -88q-51 -59 -51 -143q0 -78 62 -133q55 -51 202 -119q160 -72 224 -129q66 -59 65 -160q0 -115 -82 -178t-235 -63q-184 0 -306 57l-6 45l35 217 l29 -2l-21 -231q98 -49 269 -50q137 0 225 50q51 63 51 155q0 76 -53 131q-55 59 -211 123t-225 127q-68 61 -68 154q0 55 19 94q16 35 40 64q25 27 72 47q78 33 80 32q8 2 22.5 6.5t38 10.5t42 10l41 9t36 9.5t21.5 6.5q0 201 -92.5 317.5t-247.5 116.5q-166 0 -293 -78 q-90 -106 -90 -254v-1151h-197l2 20l154 11v915z" />
<glyph unicode="&#xe0;" horiz-adv-x="1130" d="M113 227q0 125 39 209q242 53 655 72v115q0 160 -76 251q-74 90 -225 91q-131 0 -260 -37l-2 -242l-33 -2l-18 242l6 28q141 45 307 45q342 0 342 -372v-596l182 -11l-2 -20h-211l-10 190q-176 -207 -408 -206q-141 0 -213 69q-73 70 -73 174zM154 238q0 -96 63 -158 q65 -61 184 -62q125 0 232 66q102 63 174 160v229q-424 -14 -625 -67q-28 -80 -28 -168zM295 1466l49 11l248 -322l-37 -10z" />
<glyph unicode="&#xe1;" horiz-adv-x="1130" d="M113 227q0 125 39 209q242 53 655 72v115q0 160 -76 251q-74 90 -225 91q-131 0 -260 -37l-2 -242l-33 -2l-18 242l6 28q141 45 307 45q342 0 342 -372v-596l182 -11l-2 -20h-211l-10 190q-176 -207 -408 -206q-141 0 -213 69q-73 70 -73 174zM154 238q0 -96 63 -158 q65 -61 184 -62q125 0 232 66q102 63 174 160v229q-424 -14 -625 -67q-28 -80 -28 -168zM422 1155l248 322l49 -11l-260 -321z" />
<glyph unicode="&#xe2;" horiz-adv-x="1130" d="M113 227q0 125 39 209q242 53 655 72v115q0 160 -76 251q-74 90 -225 91q-131 0 -260 -37l-2 -242l-33 -2l-18 242l6 28q141 45 307 45q342 0 342 -372v-596l182 -11l-2 -20h-211l-10 190q-176 -207 -408 -206q-141 0 -213 69q-73 70 -73 174zM154 238q0 -96 63 -158 q65 -61 184 -62q125 0 232 66q102 63 174 160v229q-424 -14 -625 -67q-28 -80 -28 -168zM233 1155l248 322h41l248 -322l-37 -10l-231 287l-232 -287z" />
<glyph unicode="&#xe3;" horiz-adv-x="1130" d="M113 227q0 125 39 209q242 53 655 72v115q0 160 -76 251q-74 90 -225 91q-131 0 -260 -37l-2 -242l-33 -2l-18 242l6 28q141 45 307 45q342 0 342 -372v-596l182 -11l-2 -20h-211l-10 190q-176 -207 -408 -206q-141 0 -213 69q-73 70 -73 174zM129 1257q117 139 174 140 q41 0 207 -72t207 -72l131 133l29 -14q-111 -150 -175 -149q-59 0 -221 71q-158 70 -207 70l-116 -123zM154 238q0 -96 63 -158q65 -61 184 -62q125 0 232 66q102 63 174 160v229q-424 -14 -625 -67q-28 -80 -28 -168z" />
<glyph unicode="&#xe4;" horiz-adv-x="1130" d="M113 227q0 125 39 209q242 53 655 72v115q0 160 -76 251q-74 90 -225 91q-131 0 -260 -37l-2 -242l-33 -2l-18 242l6 28q141 45 307 45q342 0 342 -372v-596l182 -11l-2 -20h-211l-10 190q-176 -207 -408 -206q-141 0 -213 69q-73 70 -73 174zM154 238q0 -96 63 -158 q65 -61 184 -62q125 0 232 66q102 63 174 160v229q-424 -14 -625 -67q-28 -80 -28 -168zM236 1313q0 18 18 37q20 20 37 20q18 0 38.5 -20.5t20.5 -38.5q0 -20 -18.5 -39t-39 -19t-38.5 18.5t-18 41.5zM666 1313q0 20 16 37q20 20 38.5 20t39 -20.5t20.5 -38.5 q0 -20 -18.5 -39t-38.5 -19q-23 0 -41 19q-16 16 -16 41z" />
<glyph unicode="&#xe5;" horiz-adv-x="1130" d="M113 227q0 125 39 209q242 53 655 72v115q0 160 -76 251q-74 90 -225 91q-131 0 -260 -37l-2 -242l-33 -2l-18 242l6 28q141 45 307 45q342 0 342 -372v-596l182 -11l-2 -20h-211l-10 190q-176 -207 -408 -206q-141 0 -213 69q-73 70 -73 174zM154 238q0 -96 63 -158 q65 -61 184 -62q125 0 232 66q102 63 174 160v229q-424 -14 -625 -67q-28 -80 -28 -168zM334 1327q0 70 49 119t118.5 49t119 -49t49.5 -119t-49.5 -119t-119 -49t-118.5 49t-49 119zM371 1325q0 -53 39 -92t92 -39t92 39t39 92q0 51 -39 90q-41 41 -92 41q-53 0 -92 -39 t-39 -92z" />
<glyph unicode="&#xe6;" horiz-adv-x="1734" d="M113 227q0 125 39 209q242 53 655 72v115q0 342 -301 342q-131 0 -260 -37l-2 -242l-33 -2l-18 242l6 28q141 45 307 45q63 0 112 -12q195 -47 224 -274q82 221 297 274q52 12 110 12q178 0 276.5 -118.5t98.5 -341.5l-12 -54l-764 -10q6 -213 114.5 -334t297 -121 t339.5 107l17 -27q-138 -117 -356 -116q-293 0 -404 254q-72 -94 -199 -177q-121 -78 -258 -77q-141 0 -213 69q-73 70 -73 174zM154 238q0 -96 63 -158q65 -61 184 -62q127 0 248 80q123 82 193 176q-31 86 -35 199q-424 -14 -625 -67q-28 -80 -28 -168zM848 512l737 14 q0 211 -90 324q-88 109 -246 113q-127 0 -254 -78q-143 -156 -147 -373z" />
<glyph unicode="&#xe7;" horiz-adv-x="1024" d="M123 502q0 225 127 362q127 135 325 135q188 0 306 -67l8 -37l-31 -227l-33 2l21 235q-23 12 -117 37q-82 20 -151 21q-141 0 -279 -91q-135 -152 -135 -368q0 -227 100 -354q100 -129 291 -130q188 0 330 97l16 -29q-129 -92 -303 -102l-86 -131q74 0 117 -31t43 -76 q0 -129 -191 -199l-14 35q164 59 164 160q0 78 -150 78l-14 26l86 136q-203 0 -317 139q-113 137 -113 379z" />
<glyph unicode="&#xe8;" horiz-adv-x="1050" d="M123 498q0 224 123 362q123 139 319 139q178 0 276.5 -118.5t98.5 -341.5l-12 -54l-764 -10q6 -213 114.5 -334t297 -121t339.5 107l17 -27q-137 -117 -357 -116q-211 0 -331.5 139t-120.5 375zM164 512l737 14q0 211 -90 324q-88 109 -246 113q-127 0 -254 -78 q-143 -156 -147 -373zM354 1466l49 11l248 -322l-37 -10z" />
<glyph unicode="&#xe9;" horiz-adv-x="1050" d="M123 498q0 224 123 362q123 139 319 139q178 0 276.5 -118.5t98.5 -341.5l-12 -54l-764 -10q6 -213 114.5 -334t297 -121t339.5 107l17 -27q-137 -117 -357 -116q-211 0 -331.5 139t-120.5 375zM164 512l737 14q0 211 -90 324q-88 109 -246 113q-127 0 -254 -78 q-143 -156 -147 -373zM481 1155l248 322l49 -11l-260 -321z" />
<glyph unicode="&#xea;" horiz-adv-x="1050" d="M123 498q0 224 123 362q123 139 319 139q178 0 276.5 -118.5t98.5 -341.5l-12 -54l-764 -10q6 -213 114.5 -334t297 -121t339.5 107l17 -27q-137 -117 -357 -116q-211 0 -331.5 139t-120.5 375zM164 512l737 14q0 211 -90 324q-88 109 -246 113q-127 0 -254 -78 q-143 -156 -147 -373zM293 1155l248 322h41l247 -322l-36 -10l-232 287l-231 -287z" />
<glyph unicode="&#xeb;" horiz-adv-x="1050" d="M123 498q0 224 123 362q123 139 319 139q178 0 276.5 -118.5t98.5 -341.5l-12 -54l-764 -10q6 -213 114.5 -334t297 -121t339.5 107l17 -27q-137 -117 -357 -116q-211 0 -331.5 139t-120.5 375zM164 512l737 14q0 211 -90 324q-88 109 -246 113q-127 0 -254 -78 q-143 -156 -147 -373zM295 1313q0 18 18 37q20 20 37 20q20 0 41 -20q18 -18 18.5 -39t-18 -39.5t-39.5 -18.5q-23 0 -41 19q-16 16 -16 41zM725 1313q0 18 18 37q20 20 37 20q20 0 41 -20q18 -18 18.5 -39t-18 -39.5t-39.5 -18.5q-23 0 -41 19q-16 16 -16 41z" />
<glyph unicode="&#xec;" horiz-adv-x="595" d="M94 1466l49 11l248 -322l-37 -10zM123 963l2 20h201l6 -43v-909l164 -11l-2 -20h-355l2 20l150 11v921z" />
<glyph unicode="&#xed;" horiz-adv-x="595" d="M123 963l2 20h201l6 -43v-909l164 -11l-2 -20h-355l2 20l150 11v921zM221 1155l248 322l49 -11l-260 -321z" />
<glyph unicode="&#xee;" horiz-adv-x="595" d="M33 1155l248 322h41l247 -322l-37 -10l-231 287l-231 -287zM123 963l2 20h201l6 -43v-909l164 -11l-2 -20h-355l2 20l150 11v921z" />
<glyph unicode="&#xef;" horiz-adv-x="595" d="M35 1313q0 18 18 37q20 20 37 20q20 0 41 -20q18 -18 18.5 -39t-18 -39.5t-39.5 -18.5q-23 0 -41 19q-16 16 -16 41zM123 963l2 20h201l6 -43v-909l164 -11l-2 -20h-355l2 20l150 11v921zM465 1313q0 18 18 37q20 20 37 20q20 0 41 -20q18 -18 18.5 -39t-18 -39.5 t-39.5 -18.5q-23 0 -41 19q-16 16 -16 41z" />
<glyph unicode="&#xf0;" horiz-adv-x="1126" d="M123 492q0 242 127 374.5t328 132.5q248 0 374 -194q-33 272 -174 465l-342 -92l-10 36l326 89q-88 111 -222 200l54 19q125 -98 211 -207l233 63l10 -37l-219 -59q186 -272 187 -672q0 -309 -113 -467q-114 -160 -326 -159q-215 0 -329.5 139.5t-114.5 368.5zM168 489 q0 -211 104.5 -340t294.5 -129q135 0 252 80q141 163 142 510q0 82 -5 129q-63 102 -155 164q-88 59 -230 60q-137 0 -256 -76q-147 -150 -147 -398z" />
<glyph unicode="&#xf1;" horiz-adv-x="1241" d="M82 946v25l172 12h37l10 -65v-113q123 195 344 194q360 0 361 -381v-587l176 -11l-2 -20h-215v614q0 346 -320 347q-101 0 -196 -43q-92 -77 -148 -185v-702l164 -11l-2 -20h-352l2 20l147 11v915h-178zM264 1257q117 139 174 140q41 0 207 -72t207 -72l131 133l29 -14 q-111 -150 -174 -149q-59 0 -222 71q-158 70 -206 70l-117 -123z" />
<glyph unicode="&#xf2;" horiz-adv-x="1122" d="M123 492q0 242 127 374.5t328 132.5q184 0 303 -135q121 -137 120 -379q0 -229 -108 -366q-106 -135 -313 -135q-223 0 -340 139.5t-117 368.5zM168 489q0 -209 106 -339q104 -129 306 -130q133 0 260 86q61 82 90 166q29 82 28 215q0 219 -110 349q-109 127 -277 127 q-137 0 -256 -76q-147 -150 -147 -398zM367 1466l49 11l248 -322l-37 -10z" />
<glyph unicode="&#xf3;" horiz-adv-x="1122" d="M123 492q0 242 127 374.5t328 132.5q184 0 303 -135q121 -137 120 -379q0 -229 -108 -366q-106 -135 -313 -135q-223 0 -340 139.5t-117 368.5zM168 489q0 -209 106 -339q104 -129 306 -130q133 0 260 86q61 82 90 166q29 82 28 215q0 219 -110 349q-109 127 -277 127 q-137 0 -256 -76q-147 -150 -147 -398zM494 1155l247 322l50 -11l-261 -321z" />
<glyph unicode="&#xf4;" horiz-adv-x="1122" d="M123 492q0 242 127 374.5t328 132.5q184 0 303 -135q121 -137 120 -379q0 -229 -108 -366q-106 -135 -313 -135q-223 0 -340 139.5t-117 368.5zM168 489q0 -209 106 -339q104 -129 306 -130q133 0 260 86q61 82 90 166q29 82 28 215q0 219 -110 349q-109 127 -277 127 q-137 0 -256 -76q-147 -150 -147 -398zM305 1155l248 322h41l248 -322l-37 -10l-232 287l-231 -287z" />
<glyph unicode="&#xf5;" horiz-adv-x="1122" d="M123 492q0 242 127 374.5t328 132.5q184 0 303 -135q121 -137 120 -379q0 -229 -108 -366q-106 -135 -313 -135q-223 0 -340 139.5t-117 368.5zM168 489q0 -209 106 -339q104 -129 306 -130q133 0 260 86q61 82 90 166q29 82 28 215q0 219 -110 349q-109 127 -277 127 q-137 0 -256 -76q-147 -150 -147 -398zM201 1257q117 139 174 140q41 0 207 -72t206 -72l132 133l28 -14q-111 -150 -174 -149q-59 0 -221 71q-158 70 -207 70l-117 -123z" />
<glyph unicode="&#xf6;" horiz-adv-x="1122" d="M123 492q0 242 127 374.5t328 132.5q184 0 303 -135q121 -137 120 -379q0 -229 -108 -366q-106 -135 -313 -135q-223 0 -340 139.5t-117 368.5zM168 489q0 -209 106 -339q104 -129 306 -130q133 0 260 86q61 82 90 166q29 82 28 215q0 219 -110 349q-109 127 -277 127 q-137 0 -256 -76q-147 -150 -147 -398zM307 1313q0 20 17 37q20 20 38 20q20 0 41 -20q18 -18 18.5 -39t-18 -39.5t-38.5 -18.5q-23 0 -41 19q-17 16 -17 41zM737 1313q0 20 17 37q20 20 38.5 20t39 -20.5t20.5 -38.5q0 -20 -18.5 -39t-38.5 -19q-23 0 -41 19q-17 16 -17 41 z" />
<glyph unicode="&#xf7;" horiz-adv-x="950" d="M123 502v41h706v-41h-706zM418 176q0 25 18 43q16 16 39 17q27 0 43.5 -16.5t16.5 -43.5q0 -25 -16.5 -41t-43.5 -16q-23 0 -41 18q-16 16 -16 39zM418 868q0 25 18 43q16 16 39 17q27 0 43.5 -16.5t16.5 -43.5q0 -25 -16.5 -41t-43.5 -16q-23 0 -41 18q-16 16 -16 39z " />
<glyph unicode="&#xf8;" horiz-adv-x="1122" d="M123 492q0 242 127 374.5t328 132.5q158 0 268 -98l123 178l32 -22l-127 -185q127 -143 127 -387q0 -229 -108 -366q-106 -135 -313 -135q-158 0 -267 71l-102 -149l-35 24l105 150q-158 133 -158 412zM168 489.5q0 -247.5 137 -372.5l514 747q-104 98 -248 99 q-137 0 -256 -76q-147 -150 -147 -397.5zM338 90q94 -70 242 -70q133 0 260 86q61 82 90 166q29 82 28 215q0 213 -110 347z" />
<glyph unicode="&#xf9;" horiz-adv-x="1282" d="M102 946v21l166 16h47l9 -63v-564q0 -162 82 -250q80 -86 202 -86q145 0 271 60q76 70 120 135v731h-180v21l164 16h51l6 -63v-889l162 -11l-2 -20h-188l-13 156q-139 -172 -391 -172q-141 0 -233 96t-92 266v600h-181zM459 1466l49 11l248 -322l-37 -10z" />
<glyph unicode="&#xfa;" horiz-adv-x="1282" d="M102 946v21l166 16h47l9 -63v-564q0 -162 82 -250q80 -86 202 -86q145 0 271 60q76 70 120 135v731h-180v21l164 16h51l6 -63v-889l162 -11l-2 -20h-188l-13 156q-139 -172 -391 -172q-141 0 -233 96t-92 266v600h-181zM586 1155l248 322l49 -11l-260 -321z" />
<glyph unicode="&#xfb;" horiz-adv-x="1282" d="M102 946v21l166 16h47l9 -63v-564q0 -162 82 -250q80 -86 202 -86q145 0 271 60q76 70 120 135v731h-180v21l164 16h51l6 -63v-889l162 -11l-2 -20h-188l-13 156q-139 -172 -391 -172q-141 0 -233 96t-92 266v600h-181zM397 1155l248 322h41l248 -322l-37 -10l-231 287 l-232 -287z" />
<glyph unicode="&#xfc;" horiz-adv-x="1282" d="M102 946v21l166 16h47l9 -63v-564q0 -162 82 -250q80 -86 202 -86q145 0 271 60q76 70 120 135v731h-180v21l164 16h51l6 -63v-889l162 -11l-2 -20h-188l-13 156q-139 -172 -391 -172q-141 0 -233 96t-92 266v600h-181zM399 1313q0 20 17 37q20 20 38.5 20t39 -20.5 t20.5 -38.5q0 -20 -18.5 -39t-38.5 -19q-23 0 -41 19q-17 16 -17 41zM829 1313q0 20 17 37q20 20 38.5 20t39 -20.5t20.5 -38.5q0 -20 -18.5 -39t-38.5 -19q-23 0 -41 19q-17 16 -17 41z" />
<glyph unicode="&#xfd;" horiz-adv-x="1181" d="M10 963l2 20h330l-2 -20l-150 -11l369 -915h31l373 915l-162 11l2 20h371l-3 -20l-163 -11l-451 -1079q-125 -297 -379 -297h-135l-8 14l6 29l10 6l129 -14q238 0 348 276l47 117l-30 -4l-21 23l-379 929zM496 1155l247 322l50 -11l-261 -321z" />
<glyph unicode="&#xfe;" horiz-adv-x="1181" d="M82 1561v24l172 12h37l10 -65v-696q133 164 358 163q166 0 283 -118q119 -123 119 -355q0 -255 -105 -399q-104 -143 -299 -143q-224 0 -356 104v-528l164 -11l-2 -20h-352l2 20l147 11v2001h-178zM301 133q127 -113 354 -113q137 0 238 82q68 86 96 174q31 92 31 242 q0 231 -106.5 338t-258.5 107q-135 0 -243 -60q-70 -59 -111 -125v-645z" />
<glyph unicode="&#xff;" horiz-adv-x="1181" d="M10 963l2 20h330l-2 -20l-150 -11l369 -915h31l373 915l-162 11l2 20h371l-3 -20l-163 -11l-451 -1079q-125 -297 -379 -297h-135l-8 14l6 29l10 6l129 -14q238 0 348 276l47 117l-30 -4l-21 23l-379 929zM309 1313q0 20 17 37q20 20 39 20q20 0 41 -20q18 -18 18 -39 t-18.5 -39.5t-38.5 -18.5q-23 0 -41 19q-17 16 -17 41zM739 1313q0 20 17 37q20 20 38.5 20t39 -20.5t20.5 -38.5q0 -20 -18.5 -39t-38.5 -19q-23 0 -41 19q-17 16 -17 41z" />
<glyph unicode="&#x152;" horiz-adv-x="1935" d="M158 698q0 346 180 547q182 205 481 205q104 0 291 -16h684l-6 -332l-25 2l-12 297h-639v-660h447l18 191l25 -2v-398l-25 3l-18 174h-447v-676h674l10 305l25 -2l4 -336h-719q-137 -16 -301 -16q-285 0 -465 196q-182 199 -182 518zM199 696q0 -295 172 -483t434 -188 q209 0 266 4v1366q-178 14 -254 14q-240 0 -426 -147q-192 -230 -192 -566z" />
<glyph unicode="&#x153;" horiz-adv-x="1886" d="M123 492q0 242 127 374.5t328 132.5q144 0 251 -86q111 -88 150 -245q41 154 151 243q109 88 271 88q180 0 278 -118q96 -117 97 -342l-13 -54l-764 -10q0 -184 111 -319.5t301 -135.5q188 0 340 107l16 -27q-138 -117 -356 -116q-166 0 -276.5 86t-153.5 239 q-37 -152 -139 -239q-100 -86 -262 -86q-223 0 -340 139.5t-117 368.5zM168 489q0 -209 106 -339q104 -129 306 -130q133 0 260 86q61 82 90 166q29 82 28 215q0 217 -112 349q-109 127 -275 127q-137 0 -256 -76q-147 -150 -147 -398zM999 512l738 14q0 215 -88 323.5 t-248 113.5q-127 0 -254 -78q-136 -146 -148 -373z" />
<glyph unicode="&#x178;" horiz-adv-x="1380" d="M20 1413l3 21h415l-2 -21l-203 -10l451 -737h4l467 737l-190 10l2 21h395l-2 -21l-162 -10l-496 -785v-587l195 -11l-2 -20h-444l2 20l209 11v592l-478 780zM432 1763q0 18 17 37q18 20 38 21q23 0 41.5 -18.5t18.5 -41.5q0 -20 -18.5 -38.5t-39.5 -18.5q-23 0 -40 18 q-17 16 -17 41zM862 1763q0 18 17 37q18 20 39 21q23 0 41 -18.5t18 -41.5q0 -20 -18.5 -38.5t-38.5 -18.5q-23 0 -41 18q-17 16 -17 41z" />
<glyph unicode="&#x2c6;" horiz-adv-x="987" d="M225 1155l248 322h41l248 -322l-37 -10l-231 287l-232 -287z" />
<glyph unicode="&#x2dc;" horiz-adv-x="1189" d="M215 1257q117 139 174 140q41 0 207 -72t207 -72l131 133l29 -14q-111 -150 -175 -149q-59 0 -221 71q-158 70 -207 70l-116 -123z" />
<glyph unicode="&#x2000;" horiz-adv-x="972" />
<glyph unicode="&#x2001;" horiz-adv-x="1945" />
<glyph unicode="&#x2002;" horiz-adv-x="972" />
<glyph unicode="&#x2003;" horiz-adv-x="1945" />
<glyph unicode="&#x2004;" horiz-adv-x="647" />
<glyph unicode="&#x2005;" horiz-adv-x="485" />
<glyph unicode="&#x2006;" horiz-adv-x="323" />
<glyph unicode="&#x2007;" horiz-adv-x="323" />
<glyph unicode="&#x2008;" horiz-adv-x="241" />
<glyph unicode="&#x2009;" horiz-adv-x="387" />
<glyph unicode="&#x200a;" horiz-adv-x="106" />
<glyph unicode="&#x2010;" horiz-adv-x="909" d="M143 520v41h625v-41h-625z" />
<glyph unicode="&#x2011;" horiz-adv-x="909" d="M143 520v41h625v-41h-625z" />
<glyph unicode="&#x2012;" horiz-adv-x="909" d="M143 520v41h625v-41h-625z" />
<glyph unicode="&#x2013;" horiz-adv-x="1155" d="M143 520v41h871v-41h-871z" />
<glyph unicode="&#x2014;" horiz-adv-x="1441" d="M143 520v41h1157v-41h-1157z" />
<glyph unicode="&#x2018;" d="M203 1376q0 78 100 180l27 -26q-47 -51 -68 -105q23 0 39 -16q18 -18 18 -41q0 -25 -18 -43q-16 -16 -39 -16q-25 0 -43 18q-16 16 -16 49z" />
<glyph unicode="&#x2019;" d="M178 1214q47 51 68 105q-23 0 -41 18q-16 16 -17 39q0 27 16.5 43.5t41 16.5t43.5 -19q16 -16 16 -49q0 -78 -100 -180z" />
<glyph unicode="&#x201a;" d="M178 -104q47 51 68 104q-23 0 -41 18q-16 16 -17 39q0 27 16.5 43.5t41 16.5t43.5 -19q16 -16 16 -49q0 -78 -100 -180z" />
<glyph unicode="&#x201c;" horiz-adv-x="692" d="M178 1380q0 78 101 181l26 -27q-52 -58 -67 -104q25 0 41 -16.5t16 -41t-19 -43.5q-16 -16 -38 -16q-25 0 -43 18q-17 16 -17 49zM375 1380q0 78 100 181l27 -27q-47 -51 -68 -104q25 0 41.5 -16.5t16.5 -41.5q0 -27 -16.5 -43t-41 -16t-43.5 18q-16 16 -16 49z" />
<glyph unicode="&#x201d;" horiz-adv-x="692" d="M178 1212q47 51 68 105q-23 0 -41 18q-16 16 -17 39q0 27 16.5 43.5t41 16.5t43.5 -19q16 -16 16 -49q0 -78 -100 -180zM375 1212q52 58 67 105q-23 0 -41 18q-16 16 -16 39q0 25 18 43q16 16 39 17q25 0 43 -19q16 -16 17 -49q0 -78 -101 -180z" />
<glyph unicode="&#x201e;" horiz-adv-x="692" d="M178 -104q47 51 68 104q-23 0 -41 18q-16 16 -17 39q0 27 16.5 43.5t41 16.5t43.5 -19q16 -16 16 -49q0 -78 -100 -180zM375 -104q52 58 67 104q-23 0 -41 18q-16 16 -16 39q0 25 18 43q16 16 39 17q25 0 43 -19q16 -16 17 -49q0 -78 -101 -180z" />
<glyph unicode="&#x2022;" horiz-adv-x="608" d="M221 459q0 35 21 55q23 23 53 23q33 0 55.5 -22.5t22.5 -55.5q0 -29 -22.5 -51.5t-55.5 -22.5q-31 0 -53 23q-21 20 -21 51z" />
<glyph unicode="&#x2026;" horiz-adv-x="983" d="M184 57q0 27 16.5 43.5t41.5 16.5q27 0 43 -16.5t16 -43.5q0 -23 -18 -41q-16 -16 -41 -16q-23 0 -41 18q-17 16 -17 39zM434 57q0 27 16.5 43.5t41.5 16.5q27 0 43 -16.5t16 -43.5q0 -23 -19 -41q-16 -16 -40 -16q-23 0 -41 18q-17 16 -17 39zM684 57q0 25 18 43 q16 16 39 17q27 0 43.5 -16.5t16.5 -43.5q0 -25 -16.5 -41t-43.5 -16q-23 0 -41 18q-16 16 -16 39z" />
<glyph unicode="&#x202f;" horiz-adv-x="387" />
<glyph unicode="&#x2039;" horiz-adv-x="690" d="M115 475v35q43 45 129 143l141 172l129 156l29 -20l-174 -218l-215 -251l215 -244l176 -223l-31 -23l-125 156q-106 135 -145 180q-57 69 -129 137z" />
<glyph unicode="&#x203a;" horiz-adv-x="690" d="M147 958l31 23l123 -156l148 -180q57 -70 129 -137v-35q-43 -45 -129 -143l-144 -172l-127 -156l-28 21l174 217l215 252l-215 243z" />
<glyph unicode="&#x205f;" horiz-adv-x="485" />
<glyph unicode="&#x20ac;" horiz-adv-x="1505" d="M31 563v41h217q-4 45 -4 103q0 70 2 88h-215v41h219q33 295 211 456q172 158 438 158q264 0 444 -74l7 -30l-15 -283l-28 2l2 272q-150 76 -408 76q-178 0 -360 -96q-219 -186 -250 -481h610v-41h-614q-2 -18 -2 -88q0 -16 4 -103h612v-41h-608q33 -252 190 -399 q152 -143 408 -144q145 0 254 25q98 23 225 94l14 -30q-113 -68 -231 -97q-115 -29 -262 -28q-267 0 -436 153q-170 154 -203 426h-221z" />
<glyph unicode="&#x2122;" horiz-adv-x="1888" d="M68 1434h637l-5 -191l-28 2l-6 158h-258v-701l114 -6v-22h-272v22l115 6v701h-259l-6 -158l-28 -2zM795 674l2 22l94 6l63 703l-92 6l2 23h252l-2 -23l-94 -6l285 -660h2l274 660l-80 6l2 23h219l-2 -23l-80 -6l66 -703l92 -6v-22h-229l2 22l92 6l-59 676l-279 -684h-47 l-293 684l-55 -676l94 -6l-2 -22h-227z" />
<glyph unicode="&#xe000;" horiz-adv-x="985" d="M0 985h985v-985h-985v985z" />
<glyph unicode="&#xfb01;" horiz-adv-x="1333" d="M82 958l2 25h207v127q0 175 117 295q117 119 315 119q160 0 260 -72t100 -135l-36 -2l-13 24q-23 70 -102 111q-83 43 -209 43q-162 0 -295 -102q-96 -131 -96 -287v-121h309l-2 -25l-307 -12v-915l205 -11l-2 -20h-400l2 20l154 11v915zM860 963l2 20h201l6 -43v-909 l164 -11l-2 -20h-354l2 20l149 11v921zM969 1319q0 18 18 37q20 20 37 20q18 0 38.5 -20.5t20.5 -38.5q0 -20 -18 -38.5t-39 -18.5q-23 0 -41 18q-16 16 -16 41z" />
<glyph unicode="&#xfb02;" horiz-adv-x="1337" d="M82 958l2 25h207v168q0 184 108.5 286.5t296.5 102.5q246 0 353 -86l-21 -22q-131 78 -332 77q-86 0 -149 -24q-72 -29 -141 -80q-74 -98 -74 -254v-168h309l-2 -25l-307 -12v-915l205 -11l-2 -20h-400l2 20l154 11v915zM852 0l2 20l164 11v1566h35l6 -51v-1515l178 -11 l-2 -20h-383z" />
<glyph unicode="&#xfb03;" horiz-adv-x="2172" d="M82 958l2 25h207v168q0 184 80 280.5t231 96.5q111 0 219 -35l15 -37l-19 -194l-29 2l13 200q-98 33 -199 33q-111 0 -207 -74q-63 -113 -63 -272v-168h659v115q0 193 119 309.5t311 116.5q164 0 265 -72q98 -71 98 -135q0 -20 -18.5 -38.5t-39.5 -18.5q-23 0 -40 18 q-16 16 -17 41q0 16 17 37q14 18 32 20q-86 117 -288 117q-158 0 -302 -102q-96 -125 -96 -297v-111h731l6 -43v-909l164 -11l-2 -20h-354l2 20l150 11v915h-697v-915l205 -11l-2 -20h-399l2 20l153 11v915h-659v-915l205 -11l-2 -20h-400l2 20l154 11v915z" />
<glyph unicode="&#xfb04;" horiz-adv-x="2037" d="M82 958l2 25h207v168q0 184 80 280.5t231 96.5q111 0 219 -35l15 -37l-19 -194l-29 2l13 200q-98 33 -199 33q-111 0 -207 -74q-63 -113 -63 -272v-168h659v162q0 186 104.5 290.5t301.5 104.5q201 0 321 -63v120h35l6 -51v-1515l178 -11l-2 -20h-383l2 20l164 11v1407 q-139 72 -321 71q-150 0 -291 -104q-74 -101 -74 -270v-152h309l-2 -25l-307 -12v-915l205 -11l-2 -20h-399l2 20l153 11v915h-659v-915l205 -11l-2 -20h-400l2 20l154 11v915z" />
</font>
</defs>
</svg>
