<?xml version="1.0" standalone="no"?>
<!DOCTYPE svg PUBLIC "-//W3C//DTD SVG 1.1//EN" "http://www.w3.org/Graphics/SVG/1.1/DTD/svg11.dtd" >
<svg xmlns="http://www.w3.org/2000/svg">
<metadata>
This is a custom SVG webfont generated by Font Squirrel.
Copyright   : This font has been released into the public domain by its author Barry Schwartz This applies worldwideIn some countries this may not be legally possible if soBarry Schwartz grants anyone the right to use this work for any purpose without any conditions unless such conditions are required by law
</metadata>
<defs>
<font id="webfontX7iz9e4P" horiz-adv-x="464" >
<font-face units-per-em="2048" ascent="1509" descent="-539" />
<missing-glyph horiz-adv-x="512" />
<glyph unicode="ff" horiz-adv-x="1021" d="M18 35q0 27 21.5 33t69.5 12q18 4 24 18.5t9 64.5t3 177v377q0 20 -24 20h-39q-41 0 -41 39q0 66 41 66h45q14 0 14 18v2q0 59 11.5 124t40 152t95 160.5t163.5 114.5q72 31 137 31q55 0 93 -19.5t54.5 -39t18.5 -19.5l37 27q39 29 107.5 55.5t145.5 26.5q72 0 107 -32 t35 -71q0 -35 -23.5 -58.5t-60.5 -23.5q-31 0 -86 25.5t-88 25.5q-59 0 -103.5 -56t-68.5 -204q-10 -61 -11 -151v-66q0 -23 21 -22h199q33 0 32 -31q0 -59 -28 -74q-8 -2 -23 -2h-180q-18 0 -18 -22v-594q0 -31 17 -37t105 -12q33 -2 33 -43q0 -37 -29 -37q-4 0 -28.5 3 t-68.5 5t-95 2q-45 0 -91 -2t-73 -6l-26 -2q-27 0 -27 33q0 31 11 37t69 16q20 4 32.5 6t19.5 29.5t7 95.5l2 510q0 20 -22 20h-267q-29 0 -28 -22v-592v-4q0 -39 37 -43q41 -2 66.5 -4t36.5 -10.5t11 -32.5q0 -41 -24 -41l-27 4q-27 2 -71 5t-89 3t-89 -3t-70 -5l-25 -4 q-27 0 -27 47zM287 868q0 -27 22 -26h262q31 0 31 24v17q0 84 12.5 158.5t26.5 115.5t27 70l12 28q0 8 -8 9h-6q-33 0 -88.5 26.5t-92.5 26.5q-74 0 -121 -76t-62 -163t-15 -175v-35z" />
<glyph unicode="fi" horiz-adv-x="972" d="M37 39q0 16 8 22.5t29.5 9.5t58.5 9q12 2 19.5 8t9.5 14.5t2 18.5v8q8 102 8 588q0 16 -16.5 18t-73.5 2q-43 0 -43 37q0 61 41 62h2l58 3q19 1 23.5 3t4.5 12v4q10 260 131 424q59 82 146 130t135.5 56.5t89.5 8.5q68 0 110.5 -30t42.5 -77q0 -35 -25.5 -58.5 t-62.5 -23.5h-2q-33 0 -92 27.5t-98 27.5q-63 0 -111.5 -46t-71 -117.5t-33 -122.5t-14.5 -96q-2 -20 -2 -64v-18q0 -25 3 -31t18 -6h260q66 4 124 13t60 9q45 0 45 -55q0 -2 -2 -41t-5 -91t-5 -136t-2 -164q0 -238 6 -268q4 -14 15.5 -18.5t62.5 -14.5q37 -6 37 -41 q0 -45 -33 -45q-4 0 -25.5 3t-58.5 5t-82 2q-43 0 -87 -3t-71 -5l-26 -4q-31 0 -31 35q0 33 12.5 39t87.5 16q55 8 56 74v94q0 119 1 221t1 161v70q0 18 -9.5 22.5t-46.5 8.5q-37 6 -75 6h-209q-18 0 -19 -16v-588v-6q0 -47 41 -49q72 -2 94.5 -7.5t22.5 -35.5 q0 -45 -33 -45l-26 4q-27 2 -71 5t-87 3q-45 0 -89 -3t-71 -5l-26 -4q-31 0 -31 51z" />
<glyph unicode="fl" horiz-adv-x="942" d="M23 39q0 16 8 22.5t29.5 9.5t60.5 9q25 4 29 41v8q8 102 8 588q0 16 -15.5 18t-66.5 2q-43 0 -43 37q0 61 43 62l51 3q16 1 21.5 3t5.5 12v16q0 223 71 369q47 92 140.5 164t220.5 72q35 0 66.5 -8.5t37.5 -8.5q14 0 36 11.5t30 11.5q29 0 28 -39v-1297q0 -25 5.5 -38 t17.5 -19t32.5 -9t51.5 -9q35 -6 35 -41q0 -41 -27 -41l-18 2q-16 2 -40 4t-61 4t-73 2q-43 0 -87.5 -2t-70.5 -6l-25 -2q-31 0 -30 43q0 27 13 33t71 12q37 4 47 22.5t10 55.5v987v16q0 143 -107 176q-18 8 -43 8q-188 0 -188 -454q0 -33 3 -40t19 -7h166q45 0 45 -41v-2 q0 -63 -53 -64h-160q-18 0 -18 -16v-588v-10q0 -43 41 -45q70 -2 93.5 -7.5t23.5 -35.5q0 -45 -33 -45l-27 4q-25 2 -69.5 5t-87.5 3q-45 0 -89.5 -3t-70.5 -5l-27 -4q-30 0 -30 51z" />
<glyph unicode="ffi" horiz-adv-x="1458" d="M16 35q0 27 21.5 33t68.5 12q25 6 29 33q8 49 8 303v301q0 20 -24 20h-39q-41 0 -41 39q0 66 41 66h45q14 0 14 18v2q0 135 45 263t142 210q125 109 278 109h2q45 0 79 -12.5t48.5 -27.5t24.5 -27.5t14 -12.5q2 0 25.5 20.5t56.5 43t98.5 42t143.5 19.5q115 0 161 -35 t46 -80q0 -37 -27 -60.5t-64 -23.5q-39 0 -108.5 39t-118.5 39q-86 0 -153.5 -96t-67.5 -342v-66q0 -23 20 -22h299q66 4 123.5 13t59.5 9q45 0 45 -55q0 -2 -2 -41t-5.5 -91t-5.5 -136t-2 -164q0 -254 7 -268q4 -14 15 -18.5t62 -14.5q37 -6 37 -41q0 -45 -33 -45 q-4 0 -25.5 3t-58 5t-81.5 2t-89.5 -3t-70.5 -5l-27 -4q-29 0 -28 35q0 33 12 39t88 16q55 8 55 74l-2 6v88q0 119 1 221t2 160.5t1 70.5q0 18 -9 22.5t-46 8.5q-33 6 -70 6h-252q-18 0 -18 -22v-594q0 -31 17.5 -37t105.5 -12q33 -2 33 -43q0 -37 -29 -37q-4 0 -28.5 3 t-68.5 5t-96 2q-45 0 -91 -2t-72 -6l-27 -2q-27 0 -27 33q0 23 5.5 29.5t22.5 12t52 11.5q20 4 32.5 6t20 29.5t7.5 95.5l2 510q0 20 -23 20h-287q-29 0 -28 -22v-592v-4q0 -39 37 -43q41 -2 66.5 -4t36.5 -10.5t11 -32.5q0 -41 -24 -41l-27 4q-27 2 -71 5t-89 3t-89 -3 t-68 -5l-27 -4q-27 0 -27 47zM285 868q0 -27 22 -26h283q31 0 31 24v17q0 84 12 158.5t26.5 115.5t26.5 70l12 28q0 8 -8 9h-6q-33 0 -89 27.5t-97 27.5q-80 0 -130.5 -71.5t-66.5 -157.5t-16 -187v-35z" />
<glyph unicode="ffl" horiz-adv-x="1449" d="M18 776q0 66 41 66h86q12 0 13.5 5t2.5 42t5 78q35 254 182 372q61 51 144 78t147 27q29 0 53.5 -5t41 -13.5t30.5 -18.5t21.5 -18.5t13.5 -16.5l4 -6h6l35 27q37 29 105.5 55.5t148.5 26.5q31 0 60.5 -8.5t35.5 -8.5h2q14 0 35.5 11.5t30.5 11.5q29 0 28 -39v-1278 q0 -4 -1 -10.5t-1 -8.5q0 -25 5 -38t17.5 -19t33 -9t51.5 -9q35 -6 35 -41q0 -41 -25 -41l-29 4q-27 2 -73 5t-91 3q-43 0 -87 -2t-70 -6l-27 -2q-31 0 -31 43q0 27 13.5 33t72.5 12q57 6 58 78v1005q0 68 -18.5 101.5t-59.5 58.5q-43 20 -80 20q-53 0 -91 -38.5t-56.5 -104 t-26.5 -131.5t-8 -137v-66q0 -23 20 -22h199q33 0 33 -31q0 -57 -31 -74q-6 -2 -21 -2h-182q-16 0 -16 -22v-594q0 -31 17.5 -37t105.5 -12q33 -2 32 -43q0 -37 -28 -37q-6 0 -31 3t-68 5t-94 2q-47 0 -93 -2t-73 -6l-26 -2q-27 0 -27 33q0 31 12.5 37t69.5 16q18 2 30.5 6 t18.5 20q10 31 10 105l3 510q0 20 -23 20h-305q-27 0 -27 -22v-592v-4q0 -39 37 -43q41 -2 66.5 -4t37 -10.5t11.5 -32.5q0 -41 -27 -41l-26 4q-25 2 -70 5t-88 3q-45 0 -89 -3t-69 -5l-27 -4q-27 0 -26 47q0 27 20.5 33t69.5 12q18 4 24.5 20.5t9.5 76t3 212.5v328 q0 20 -25 20h-80q-41 0 -41 39zM305 868q0 -27 23 -26h299q31 0 30 24v17q0 84 12.5 158.5t26 115.5t25.5 70l12 28q0 8 -8 9h-6q-31 0 -92.5 28.5t-108.5 28.5q-156 0 -203 -274q-10 -59 -10 -144v-35z" />
<glyph unicode="&#x17f;i" horiz-adv-x="974" d="M37 39q0 14 9 21.5t30.5 10.5t56.5 9q16 2 22.5 16.5t11.5 75.5t4 187t1 354q0 14 -3 18t-22 6h-65q-41 0 -41 37q0 61 41 62l74 4q10 0 11 18.5t7 80.5t27 136q35 117 95 202t131 125t130 57.5t113 17.5q68 0 110.5 -30t42.5 -77q0 -35 -25.5 -58.5t-62.5 -23.5h-2 q-33 0 -92 27.5t-98 27.5q-78 0 -133.5 -76.5t-77 -175t-21.5 -198.5q0 -2 1 -37t1 -115v-495q0 -18 -1 -47t-1 -39q0 -53 8.5 -67.5t34.5 -16.5l92 -8q25 0 25 -39q0 -41 -33 -41l-26 4q-27 2 -71 5t-87 3q-45 0 -89 -3t-71 -5l-26 -4q-31 0 -31 51zM510 753.5 q0 16.5 19.5 28t35.5 15.5q221 106 226 106h2q29 0 28 -33l-2 -65q-4 -66 -7 -177.5t-3 -221.5v-68q0 -186 6 -222t41 -40q33 -4 53.5 -7t29.5 -11.5t9 -24.5q0 -45 -24 -45l-27 4q-27 2 -72 5t-90 3t-90 -3t-72 -5l-26 -4q-31 0 -31 35q0 33 12.5 39t87.5 16 q35 6 45.5 23.5t10.5 50.5v96v193q0 89 1 140.5t1 61.5q0 16 -7.5 24.5t-38 21.5l-93.5 38q-25 10 -25 26.5z" />
<glyph unicode="&#x17f;&#x17f;" horiz-adv-x="899" d="M18 35q0 12 3.5 18t11.5 10.5t22.5 6.5t38.5 6q20 4 27.5 7t14.5 30.5t8 77t1 155.5v371q0 20 -24 20h-39q-43 0 -43 43q0 18 9 40t34 22h45q14 0 14 20q0 258 135.5 420t311.5 162q55 0 92 -19.5t53.5 -39t22.5 -19.5q2 0 25.5 17.5t57 37t91 37t114.5 17.5 q72 0 107 -32t35 -71q0 -33 -20.5 -57.5t-61.5 -24.5q-33 0 -88 25.5t-88 25.5q-59 0 -99.5 -47t-56.5 -122.5t-21.5 -132t-5.5 -109.5v-66q0 -25 1.5 -76t1.5 -75v-594q0 -31 17 -37t105 -12q35 -2 35 -43q0 -37 -31 -37q-6 0 -29.5 3t-66.5 5t-96 2q-51 0 -110.5 -5 t-69.5 -5q-37 0 -37 30q0 33 11 39.5t69 16.5q16 2 27.5 4t18.5 12t10 37t3 78q2 408 2 510q0 20 -24 20h-39q-43 0 -43 43q0 18 9 40t34 22h45q14 0 14 20q0 129 18.5 221.5t38 132t19.5 41.5q0 6 -8 7h-6q-29 0 -85.5 26.5t-93.5 26.5q-55 0 -97 -42t-62.5 -109.5 t-29.5 -133t-9 -129.5v-35q0 -8 1 -75.5t1 -77.5v-594q0 -18 6 -28.5t20.5 -14.5t37 -6t55.5 -4q35 -2 34.5 -41t-26.5 -39l-27 4q-27 2 -71 5t-89 3t-89 -3t-70 -5l-25 -4q-27 0 -27 47z" />
<glyph unicode="&#x17f;l" horiz-adv-x="942" d="M23 39q0 23 21.5 29t76.5 12q29 4 32 76.5t5 560.5q0 12 -4 15t-21 5h-57q-43 0 -43 39q0 59 43 60l65 4q12 0 13 14v4q0 469 288 588q72 29 144 29q37 0 67.5 -7.5t36.5 -7.5q14 0 36 10.5t30 10.5q29 0 28 -39v-1301q0 -18 3.5 -28.5t10.5 -17.5t18 -11t30 -7l45 -7 q35 -6 35 -41q0 -25 -5.5 -32t-23.5 -7q-4 0 -65.5 5t-124.5 5q-55 0 -113.5 -5t-65.5 -5q-20 0 -27 8t-7 33q0 20 7 29.5t25.5 11.5t51.5 6q27 2 40 16.5t15 26.5t2 41v981q0 45 -4 73.5t-28.5 66.5t-74.5 52q-18 8 -43 8q-53 0 -92 -38.5t-58.5 -107.5t-28.5 -144.5 t-9 -163.5v-10q0 -4 1 -30t1 -99v-590q0 -51 7 -66.5t34 -17.5l92 -8q27 0 27 -37q0 -43 -35 -43l-27 4q-25 2 -69.5 5t-87.5 3q-45 0 -89.5 -3t-70.5 -5l-27 -4q-30 0 -30 51z" />
<glyph unicode="&#x17f;&#x17f;i" horiz-adv-x="1460" d="M16 35q0 18 6.5 25.5t23.5 9.5t46 6q33 4 42 30.5t9 143.5v467q0 20 -24 20h-39q-43 0 -43 43q0 18 9 40t34 22h45q14 0 14 20q0 66 12.5 133.5t42 152.5t98 155.5t165.5 109.5q78 31 147 31h2q57 0 94 -19.5t52.5 -39t21.5 -19.5q4 0 25.5 19.5t54.5 42t98.5 42 t143.5 19.5q115 0 161 -35t46 -80q0 -35 -25 -59.5t-66 -24.5q-39 0 -109.5 39t-117.5 39q-86 0 -153.5 -96t-67.5 -342v-66q0 -2 1 -9t1 -41v-101v-594q0 -16 5 -25.5t19.5 -13.5t38 -5t60.5 -5q35 -2 35 -43q0 -37 -31 -37l-59 6q-59 4 -134 4q-53 0 -112.5 -5t-67.5 -5 q-37 0 -37 30q0 33 11.5 39.5t68.5 16.5q16 2 27.5 4t18.5 12t10.5 37t3.5 78l2 510q0 20 -25 20h-37q-43 0 -43 43q0 61 43 62h43q16 0 17 20v47q0 96 18 177t36.5 124t18.5 47q0 6 -8 7h-6q-29 0 -87 27.5t-97 27.5q-82 0 -147.5 -95.5t-65.5 -320.5v-35q0 -8 1 -75.5 t1 -77.5v-594q0 -25 11 -35t37.5 -12t70.5 -4q35 -2 34 -43q0 -39 -26 -39l-27 4q-27 2 -71 5t-89 3t-89 -3t-68 -5l-27 -4q-27 0 -27 47zM995 753.5q0 16.5 19.5 28t36.5 15.5q221 106 225 106h2q29 0 29 -33l-4 -65l-5.5 -177.5t-3.5 -221.5v-68q0 -186 6.5 -222t40.5 -40 q33 -4 53.5 -7t30 -11.5t9.5 -24.5q0 -45 -25 -45l-27 4q-27 2 -71.5 5t-89.5 3t-90.5 -3t-71.5 -5l-27 -4q-31 0 -31 35q0 33 12.5 39t88.5 16q35 6 45 23.5t10 50.5v96q0 104 1 193t1 141v61q0 16 -7 24.5t-38 21.5l-94 38q-25 10 -25 26.5z" />
<glyph unicode="&#x17f;&#x17f;l" horiz-adv-x="1449" d="M18 776q0 66 41 66h86q12 0 13.5 5t2.5 42t5 78q16 121 61 212t98.5 140t119 78.5t110.5 38t84 8.5q57 0 95 -19.5t53.5 -39t21.5 -19.5l37 27q37 29 105.5 55.5t146.5 26.5q33 0 60.5 -8.5t35.5 -8.5q14 0 35.5 11.5t32.5 11.5q29 0 28 -39v-1278q0 -4 -1 -11.5 t-1 -11.5q0 -23 5 -35t17.5 -18t33 -9t51.5 -9q35 -6 35 -41q0 -41 -25 -41l-29 4q-27 2 -73 5t-91 3q-57 0 -114.5 -5t-65.5 -5q-20 0 -26.5 8t-8.5 33q0 20 8.5 29.5t27 11.5t50.5 6q27 2 40.5 16.5t15.5 26.5t2 41v999q0 59 -19.5 100.5t-50.5 56.5t-51.5 20t-36.5 5 q-53 0 -92 -41.5t-57.5 -110.5t-25.5 -132.5t-7 -128.5v-66q0 -8 1 -76.5t1 -74.5v-594q0 -29 16.5 -35t106.5 -14q33 -2 32 -43q0 -37 -30 -37l-60 6q-59 4 -131 4q-53 0 -112.5 -5t-67.5 -5q-39 0 -39 33q0 23 6 30.5t24.5 12t51.5 10.5q16 2 27.5 4t17.5 13t10 37t4 77 l3 510q0 20 -27 20h-78q-41 0 -41 39q0 66 41 66h84q12 0 14 11t2 52q0 100 19.5 182t38 123t18.5 47.5t-14 6.5h-10q-20 0 -82 28.5t-109 28.5q-156 0 -203 -274q-10 -59 -10 -144v-35q0 -8 1 -75.5t1 -77.5v-594q0 -25 11.5 -35t38 -12t69.5 -4q35 -2 35 -43 q0 -39 -29 -39l-26 4q-25 2 -70 5t-88 3q-45 0 -89 -3t-69 -5l-27 -4q-29 0 -28 41q0 16 5 24t15.5 12.5t23.5 6.5t32 4q33 4 43 30.5t10 143.5v467q0 20 -25 20h-80q-41 0 -41 39z" />
<glyph unicode=" "  horiz-adv-x="512" />
<glyph unicode="&#x09;" horiz-adv-x="512" />
<glyph unicode="&#xa0;" horiz-adv-x="512" />
<glyph unicode="!" horiz-adv-x="665" d="M221 1251q0 31 27 47q139 82 149 82q20 0 21 -53v-47q0 -281 -35 -531.5t-57 -316.5q-10 -33 -35 -33q-31 0 -31 62v35q-4 127 -9 251.5t-10 211.5l-10 155l-6 103zM233 72q0 45 32 73.5t75 28.5t73.5 -30.5t30.5 -73.5q0 -41 -29.5 -72t-74.5 -31q-43 0 -75 30t-32 75z " />
<glyph unicode="&#x22;" horiz-adv-x="796" d="M78 981v2q0 10 121 367q43 115 108 114q35 0 55.5 -22.5t20.5 -55.5q0 -27 -29 -79q-190 -340 -198 -351q-16 -20 -37 -20q-18 0 -29.5 13.5t-11.5 31.5zM416 981v2q0 10 123 367q39 115 108 114q33 0 53.5 -22.5t20.5 -55.5q0 -31 -27 -79l-109 -193q-87 -154 -91 -158 q-16 -20 -37 -20q-18 0 -29.5 13.5t-11.5 31.5z" />
<glyph unicode="#" horiz-adv-x="1130" d="M111 360q0 20 1 29.5t8 17t23 7.5h179q6 0 6 4q41 281 41 295q0 10 -15 10h-207q-37 0 -36 45q0 47 36 47h222q18 0 18 16q57 410 59 412q10 16 48 17h2q41 0 41 -27q0 -8 -29 -205t-29 -203q0 -10 17 -10h213q16 0 18 14q57 412 61 416q10 14 33 15h6h15q33 0 32 -23 q0 -10 -27.5 -205.5t-27.5 -206t10 -10.5h152q39 0 39 -53q0 -39 -33 -39h-176q-6 0 -10 -12l-23 -163q-16 -118 -16 -122q0 -12 14 -12h207q37 0 37 -45q0 -47 -37 -47h-213q-23 0 -27 -23q-51 -362 -53 -367q-10 -20 -45 -20q-41 0 -41 29q0 8 24.5 186t24.5 182 q0 12 -16 13h-141q-61 0 -74.5 -3.5t-15.5 -13.5q-51 -371 -54 -375q-10 -18 -51 -18q-39 0 -39 29q0 6 25.5 184t25.5 182q0 14 -18 15h-152q-32 -1 -32 38zM422 424q0 -10 16 -10h209q20 0 23 16q39 281 39 283q0 10 -15 10h-215q-14 0 -18 -14l-22.5 -160t-16.5 -125z " />
<glyph unicode="$" horiz-adv-x="987" d="M33 272q0 47 28.5 80t71.5 33q37 0 61.5 -25.5t24.5 -68.5q0 -12 -3 -35t-3 -37q0 -70 53 -101.5t105 -31.5q10 0 10 8v533q0 25 -19 26q-133 29 -205.5 128.5t-72.5 209.5q0 125 80 213t198 99q18 4 19 16v43q0 41 41 41h2q43 0 43 -41v-39v-4q0 -12 12 -12 q127 -14 209 -82t82 -138q0 -39 -23.5 -64.5t-60.5 -25.5q-43 0 -68.5 33t-35 73t-34 78t-67.5 46h-4q-10 0 -10 -10v-357q0 -6 -1 -18.5t-1 -14.5q0 -27 21.5 -37t76.5 -28q190 -82 242 -250q18 -61 18 -125q0 -162 -99 -259t-243 -122q-16 -4 -16 -24v-142q0 -39 -41 -39 t-41 39v142q0 20 -18 20q-141 4 -236.5 92t-95.5 178zM203 1032q0 -92 69.5 -143t98.5 -51q10 0 10 10v153v170q0 55 -6 56q-43 0 -107.5 -52.5t-64.5 -142.5zM463 154q0 -63 8 -64h4q45 0 125 71.5t80 188.5q0 115 -80 184.5t-121 69.5q-14 0 -14 -18q0 -147 -1 -285.5 t-1 -146.5z" />
<glyph unicode="%" horiz-adv-x="1679" d="M84 709q0 203 90 313.5t221 110.5q106 0 194.5 -87.5t88.5 -277.5q0 -186 -86 -303t-225 -117q-106 0 -194.5 86.5t-88.5 274.5zM207 776q0 -80 24.5 -176t73.5 -139q43 -35 90 -35q125 0 150 174q10 61 10 113q0 133 -50 237.5t-138 104.5q-47 0 -80 -29t-49.5 -75 t-23.5 -89t-7 -86zM385 -213q0 8 8 25q809 1380 815 1386q16 20 47 21q18 0 40 -9.5t22 -27.5q0 -10 -8 -23q-819 -1380 -828 -1388q-18 -23 -45 -23q-18 0 -34.5 11.5t-16.5 27.5zM1001 170q0 203 90.5 313.5t221.5 110.5q106 0 194 -87t88 -278q0 -184 -86 -301.5 t-225 -117.5q-106 0 -194.5 86t-88.5 274zM1122 242l2 -4q0 -80 25 -175.5t74 -138.5q39 -35 90 -35q123 0 149 172q10 61 11 115q0 131 -50.5 235.5t-138.5 104.5q-86 0 -124 -88t-38 -186z" />
<glyph unicode="&#x26;" horiz-adv-x="1695" d="M61 502q0 59 13.5 115.5t34 96.5t39 67.5t36.5 45.5l17 21q4 8 4 14v2q0 6 -21.5 34t-43 77t-21.5 108q0 139 107.5 246t250.5 107q76 0 147.5 -30t71.5 -95q0 -39 -28.5 -65.5t-63.5 -26.5q-41 0 -87 51t-91 51q-74 0 -145.5 -67.5t-71.5 -170.5q0 -59 28.5 -114.5 t51.5 -55.5q4 0 35.5 14.5t84 28t105.5 13.5q76 0 127 -32t51 -83t-54 -84t-134 -33h-2q-49 0 -95.5 12.5t-72 24.5t-29.5 12q-12 0 -24 -20l-2 -4q-55 -98 -56 -213q0 -55 15.5 -110.5t52.5 -114t93 -102.5t147.5 -74.5t203.5 -36.5h37q117 0 205 34.5t134 90t67.5 114 t21.5 115.5q0 104 -59.5 175t-153.5 71q-90 0 -155.5 -60.5t-65.5 -136.5q0 -51 34 -89t85 -38q23 0 48 10.5t25 24.5q0 10 -29.5 18.5t-45.5 30.5q-14 20 -15 45q0 31 22.5 52.5t57.5 21.5q47 0 83 -34t36 -85q0 -61 -51 -108.5t-125 -47.5q-82 0 -140.5 60.5t-58.5 146.5 q0 82 53.5 154t145.5 119q94 47 269 74.5t237 54.5q74 33 125 95t51 148q0 94 -59.5 156.5t-135.5 62.5q-61 0 -61 -18l16 -20q16 -23 17 -52q0 -35 -23.5 -59.5t-60.5 -24.5q-39 0 -65.5 30t-26.5 71q0 66 54 108.5t126 42.5q115 0 209 -98t94 -244q0 -164 -127 -280.5 t-301 -120.5q-31 0 -31 -16q0 -2 17.5 -31t35 -83t17.5 -116v-4q0 -207 -180.5 -362.5t-430.5 -155.5q-252 0 -424 163t-172 386zM360 854q0 -6 7 -12q51 -39 168 -39q86 0 86 47q0 51 -89 51q-72 0 -122 -15.5t-50 -31.5z" />
<glyph unicode="'" horiz-adv-x="458" d="M78 983v2q0 8 121 365q43 115 108 114q35 0 55.5 -22.5t20.5 -55.5q0 -27 -29 -79q-190 -340 -198 -351q-16 -20 -37 -20q-18 0 -29.5 14.5t-11.5 32.5z" />
<glyph unicode="(" horiz-adv-x="743" d="M92 537q0 250 120 490.5t335 414.5q39 29 61 28q43 0 43 -38q0 -27 -28 -50q-168 -152 -271.5 -367.5t-103.5 -475.5q0 -246 96 -464t270 -376q33 -33 33 -55q0 -18 -12 -29.5t-31 -11.5q-25 0 -49 20q-211 166 -337 407t-126 507z" />
<glyph unicode=")" horiz-adv-x="743" d="M92 -350.5q0 18.5 31 49.5q168 152 270.5 367t102.5 475q0 248 -95.5 465t-269.5 376q-33 27 -33 54q0 18 12.5 30.5t31 12.5t48.5 -23q211 -166 336 -406.5t125 -506.5q0 -250 -119.5 -490.5t-334.5 -414.5q-39 -29 -62 -29q-18 0 -30.5 11t-12.5 29.5z" />
<glyph unicode="*" horiz-adv-x="686" d="M29 999q0 41 47 70t93 46.5t46 31.5q0 12 -27.5 22.5t-62.5 17.5t-62.5 30.5t-27.5 60.5q0 31 24.5 51.5t53.5 20.5q37 0 87 -54.5t72 -54.5q10 0 11 14q0 10 -9.5 55.5t-9.5 73.5q0 92 82 93q80 0 80 -95q0 -35 -12.5 -84t-12.5 -51q0 -4 5 -4q8 0 69.5 50t102.5 50 q31 0 55 -23.5t24 -55.5q0 -29 -29.5 -52.5t-65.5 -35t-65.5 -23.5t-29.5 -23q0 -12 47 -22t93 -34.5t46 -76.5q0 -35 -23.5 -57t-54.5 -22q-43 0 -96 54t-59 54q-14 0 -14 -18q0 -29 9 -79t9 -63q0 -41 -31 -60.5t-55.5 -19.5t-49 20.5t-24.5 65.5q0 23 7.5 67t7.5 56 q0 23 -13 23q-10 0 -69.5 -45t-102.5 -45q-33 0 -49 26.5t-16 44.5z" />
<glyph unicode="+" horiz-adv-x="1435" d="M109 518v27q0 45 49 45h501v510q0 41 41 41h29q49 0 49 -54v-497h510q41 0 41 -39v-29q0 -49 -55 -49h-496v-506q0 -45 -45 -45h-28q-45 0 -46 47v504h-503q-47 0 -47 45z" />
<glyph unicode="," d="M80 92q0 47 38 80t87 33q74 0 127 -68.5t53 -167.5q0 -119 -78 -194.5t-129 -75.5q-39 0 -39 35q0 16 10.5 25.5t35 23.5t42.5 31q53 49 54 96q0 35 -22.5 53.5t-50.5 21.5t-61.5 16t-50.5 38q-16 22 -16 53z" />
<glyph unicode="-" d="M25 369v28q0 20 7 29.5t31 28.5l282 197q50 34 63 34q33 0 32 -80q0 -29 -37 -57l-173 -123l-103 -75l-40 -26.5t-26 -9.5q-36 1 -36 54z" />
<glyph unicode="." d="M111 88q0 51 35.5 85t85 34t86 -36t36.5 -85t-34.5 -85t-86.5 -36q-49 0 -85.5 35t-36.5 88z" />
<glyph unicode="/" horiz-adv-x="890" d="M12 -354q0 8 772 1523q10 18 31 19q63 0 64 -37q0 -8 -351 -672l-127 -253l-99 -197l-74 -148l-53 -106l-35 -70q-15 -31 -21 -45t-11.5 -22.5t-5.5 -9.5t-2 -3q-10 -8 -26 -8q-62 0 -62 29z" />
<glyph unicode="0" horiz-adv-x="972" d="M25 432q0 195 134 332t322 137q186 0 319.5 -137t133.5 -332q0 -193 -133 -331t-322 -138q-186 0 -320 136t-134 333zM160 440q0 -145 95 -249.5t230 -104.5q129 0 225.5 97.5t96.5 249t-98.5 253.5t-229.5 102t-225 -102.5t-94 -245.5z" />
<glyph unicode="1" horiz-adv-x="729" d="M53 836q0 33 31 32q6 0 39 -2t89 -3t124 -1q66 0 122 1t89 3t39 2q29 0 28 -45q0 -20 -11 -27.5t-46 -9.5t-96 -6q-29 -2 -29 -32v-623q0 -41 37 -43q111 -4 146.5 -11.5t35.5 -45.5q0 -37 -35 -37l-34 4q-37 2 -98.5 5t-121 3t-118.5 -3l-97 -5l-34 -4q-29 0 -29 43 q0 35 37 39q70 4 104.5 7t42.5 10t8 32v629q0 29 -30 32q-31 2 -70 3t-53 2t-32.5 3.5t-24 7.5t-9.5 14.5t-4 25.5z" />
<glyph unicode="2" horiz-adv-x="921" d="M51 616q0 111 80 181.5t203 70.5q143 0 250.5 -85t107.5 -214q0 -59 -29.5 -117.5t-58.5 -92t-103.5 -106.5l-103.5 -103q-8 -12 -8 -15q0 -16 23 -16q47 0 149 8q78 6 134.5 39t101.5 131q8 20 24 20q37 0 37 -24q0 -6 -76 -262q-4 -16 -12 -22.5t-19.5 -6.5t-27.5 -2 q-98 -4 -328.5 -15.5t-238.5 -11.5q-55 0 -56 39q0 16 11.5 25.5t56.5 38t94 65.5q147 115 254 252q49 66 49 119q0 94 -87 161.5t-183 67.5q-76 0 -121 -44t-49 -101q0 -53 -31 -53h-2q-41 -1 -41 73z" />
<glyph unicode="3" horiz-adv-x="737" d="M53 694q0 88 51.5 150.5t139.5 62.5q35 0 84 -14t102 -41t90 -76t37 -108q0 -55 -29.5 -127t-59.5 -121t-30 -51q0 -10 15.5 -15.5t52.5 -16.5t72 -32q117 -68 116 -233q0 -199 -88 -312q-51 -66 -137 -99.5t-176 -33.5q-111 0 -173.5 51.5t-62.5 98.5q0 35 28 58.5 t62.5 23.5t60 -22.5t41 -49.5t54.5 -49.5t94 -22.5q96 0 141.5 78t45.5 186.5t-55.5 171t-194.5 62.5q-29 0 -53.5 -2t-28.5 -2q-35 0 -35 27q0 10 4 14t24.5 20.5t43.5 38.5q131 127 131 250q0 72 -44 135.5t-145 63.5q-66 0 -86 -21.5t-20 -56.5q0 -10 2 -27v-16 q0 -27 -37 -27t-37 84z" />
<glyph unicode="4" horiz-adv-x="915" d="M47 29q0 16 35 65l534 766q14 18 33 19q29 0 29 -37l-2 -668q0 -23 20 -22h33q37 0 60.5 2t25.5 2q41 0 41 -27q0 -8 -8 -61.5t-14 -59.5q-8 -8 -25 -8h-115q-18 0 -18 -14v-342q0 -25 -21 -25h-82q-20 0 -20 25v336q0 20 -16 20h-455q-35 0 -35 29zM223 145 q0 -10 13 -10h296q20 0 21 27v436q0 16 -10 16q-4 0 -13 -8q-307 -455 -307 -461z" />
<glyph unicode="5" horiz-adv-x="780" d="M78 401q0 8 65 236l64 227q10 27 35 27q12 0 168.5 -49t173 -49t34 18t33 42t19.5 28q8 6 16 6q10 0 21.5 -8.5t11.5 -20.5q0 -6 -94 -223q-8 -23 -27 -23q-14 0 -172 49.5t-162 49.5h-2q-14 0 -24.5 -28t-36.5 -134v-4q-2 -4 -2 -6q0 -12 14 -13h27q147 0 256.5 -110.5 t109.5 -290.5q0 -162 -96 -305q-55 -80 -144.5 -148.5t-132.5 -68.5q-35 0 -34 30q0 14 19.5 29.5t47 30t68.5 52.5t74 89q74 117 73 244q0 141 -82 227t-190 86q-35 0 -70 -10l-35 -10q-26 -1 -26 30z" />
<glyph unicode="6" horiz-adv-x="989" d="M68 465q0 293 205.5 529.5t512.5 293.5q4 2 15 2q18 0 29.5 -15t11.5 -32q0 -23 -33 -37q-324 -104 -504 -383l-2 -2v-4q0 -6 8 -6l15 2q14 2 40.5 5t51.5 3q203 0 348 -136t145 -339q0 -168 -109.5 -285.5t-279.5 -117.5q-180 0 -317 141t-137 381zM199 444 q0 -180 94 -299.5t225 -119.5q100 0 168 72.5t68 193.5q0 98 -35 198.5t-117 179.5t-192 79q-78 0 -128.5 -49.5t-66.5 -113t-16 -141.5z" />
<glyph unicode="7" horiz-adv-x="921" d="M72 477q0 2 9 63.5t18.5 168t11.5 215.5q0 39 36 39q23 0 29 -20.5t14 -74.5q4 -25 29 -24h619q45 0 45 -37v-2q0 -10 -119 -365l-137 -430q-59 -193 -80 -268.5t-37 -126.5t-21.5 -55t-21.5 -6q-12 -2 -39 -3h-2h-12q-57 0 -58 29q0 10 228 676q133 367 133 375 q0 39 -62 49q-113 10 -202 10q-170 0 -224 -14q-20 -4 -28 -15.5t-22.5 -54.5t-39.5 -131q-10 -31 -33 -31q-34 0 -34 33z" />
<glyph unicode="8" horiz-adv-x="915" d="M33 313q0 141 141 254l107 82q16 12 16 18.5t-10 12.5q-96 66 -157.5 157t-61.5 191q0 129 103 234.5t257 105.5q141 0 239.5 -75.5t98.5 -215.5q0 -102 -60.5 -197.5t-156.5 -148.5q-6 -2 -6 -10q0 -2 6 -8q145 -66 233 -168.5t88 -214.5q0 -150 -134 -262.5 t-308 -112.5q-164 0 -279.5 106.5t-115.5 251.5zM184 309q0 -113 79 -185.5t188 -72.5q102 0 175.5 65.5t73.5 162.5q0 98 -81.5 186t-212.5 153q-20 12 -31 13q-35 0 -113 -102.5t-78 -219.5zM209 1053q0 -92 55 -167t111.5 -105.5t87.5 -30.5q14 0 29 14q123 113 122 266 q0 98 -59 170t-149 72h-3q-82 -2 -138 -65.5t-56 -153.5z" />
<glyph unicode="9" horiz-adv-x="1042" d="M66 465q0 174 124.5 293t296.5 119q197 0 338.5 -151t141.5 -368q0 -240 -180.5 -463t-469.5 -313q-53 -14 -63 -14q-20 0 -29.5 17.5t-9.5 31.5q0 25 35 35q111 35 210 96.5t155.5 118.5t88 97t31.5 46t-6 6l-24 -6q-23 -6 -63 -13t-79 -7q-205 0 -351 142.5t-146 332.5 zM215 512q0 -166 99.5 -304t267.5 -138q92 0 137 37.5t67 107.5q23 74 23 145q0 174 -107.5 299t-248.5 125q-92 0 -165 -68.5t-73 -203.5z" />
<glyph unicode=":" horiz-adv-x="466" d="M133 88q0 51 36 85t85 34t86 -36t37 -85t-36 -85t-87 -36q-49 0 -85 35t-36 88zM133 723q0 51 36 85t85 34t86 -36t37 -85t-36 -85t-87 -36q-49 0 -85 35t-36 88z" />
<glyph unicode=";" d="M129 92q0 47 38 80t87 33q74 0 127 -68.5t53 -167.5q0 -119 -79 -194.5t-130 -75.5q-37 0 -37 35q0 16 10.5 25.5t35 23.5t42.5 31q53 51 54 96v2q0 35 -22.5 52.5t-51.5 21.5t-61.5 16t-49.5 37q-16 18 -16 53zM133 723q0 51 36 85t85 34t86 -36t37 -85t-36 -85t-87 -36 q-49 0 -85 35t-36 88z" />
<glyph unicode="&#x3c;" horiz-adv-x="1376" d="M106 471v39q0 23 37 37q1073 391 1082 391q47 0 47 -78q0 -29 -39 -41l-903 -330l915 -331q27 -10 27 -35t-14.5 -50.5t-45.5 -25.5q-10 0 -1071 387q-35 12 -35 37z" />
<glyph unicode="=" horiz-adv-x="1435" d="M109 670v28q0 45 47 45h1130q41 0 41 -41v-26q0 -51 -53 -51h-1118q-47 0 -47 45zM111 365v28q0 45 47 45h1130q41 0 41 -41v-28q0 -49 -53 -50h-1120q-45 1 -45 46z" />
<glyph unicode="&#x3e;" horiz-adv-x="1376" d="M106 122.5q0 24.5 27 35.5l916 331l-904 330q-39 12 -39 41q0 78 48 78q8 0 1081 -391q37 -14 37 -37v-39q0 -25 -35 -37q-1063 -387 -1071 -387q-31 0 -45.5 25.5t-14.5 50z" />
<glyph unicode="?" horiz-adv-x="778" d="M31 1272q0 92 131 121q80 18 166 18q178 0 270 -95t92 -206q0 -70 -34.5 -131t-85.5 -109l-100 -96q-50 -49 -85 -115.5t-35 -146.5q0 -10 1 -24.5t1 -20.5q0 -37 -17.5 -55.5t-35.5 -18.5q-55 0 -55 113q0 90 43 176t93 143.5t93 137t43 157.5q0 88 -51 150.5t-127 62.5 q-43 0 -75 -23.5t-46 -52t-39.5 -52t-60.5 -23.5q-37 0 -61.5 26.5t-24.5 63.5zM203 88q0 51 36.5 85t86 34t86.5 -36t37 -85t-36 -85t-87 -36q-49 0 -86 35t-37 88z" />
<glyph unicode="@" horiz-adv-x="2048" d="M180 381v2q0 88 19.5 176t66.5 196.5t150.5 210t249.5 175.5q221 111 444 110q295 0 479.5 -186t184.5 -459q0 -254 -147.5 -438t-332.5 -184q-68 0 -112.5 23.5t-59 52t-23.5 52t-11.5 23.5t-10.5 -8q-125 -156 -268 -156q-80 0 -135.5 55.5t-55.5 143.5 q0 133 141.5 322.5t272.5 269.5q80 49 154 49q23 0 40 -3t19 -3q16 0 32.5 31.5t18.5 33.5q10 8 27 9q47 0 47 -35l-51 -182q-51 -182 -90 -406q-10 -47 -10 -80q0 -53 29.5 -75.5t68.5 -22.5q66 0 142.5 42t123.5 109q104 145 105 385v2q0 262 -165 408.5t-411 146.5 q-309 0 -536.5 -214t-227.5 -551q0 -301 187.5 -495t488.5 -194q137 0 252 37t170 82q31 18 39 19q25 0 24 -25q0 -33 -83 -79t-162 -70q-129 -41 -277 -41h-2q-346 2 -575.5 201.5t-229.5 539.5zM770 209q0 -55 26.5 -79t59.5 -24q37 0 97.5 30t103.5 79q41 45 45 70 q100 434 100 438q0 20 -22 20q-68 0 -191 -118.5t-190 -292.5q-29 -68 -29 -123z" />
<glyph unicode="A" horiz-adv-x="1681" d="M18 31q0 20 6.5 31.5t17.5 16.5t28.5 8t40.5 5q49 6 71.5 25.5t44.5 72.5q152 338 314 656l265 503q36 67 52 81q23 16 49 16q55 0 86 -78l295 -680q223 -543 228 -549q27 -41 87 -49t66 -31q4 -16 4 -26q0 -45 -41 -45l-35 4q-33 2 -89 5t-111 3q-66 0 -120 -3t-86 -6 t-38 -3q-41 0 -41 35q0 25 5 36t18.5 17t37 9t60.5 7q41 8 41 39t-49 183.5t-105 279.5q-8 20 -37 20h-481q-33 0 -47 -24q-70 -129 -124 -268.5t-54 -174.5q0 -20 8 -32.5t24.5 -17.5t40.5 -8l56 -7q45 -4 45 -49t-45 -45q-6 0 -35 3t-80 6t-110 3q-53 0 -106.5 -3 t-84.5 -5l-31 -4q-41 0 -41 43zM610 729q0 -8 13 -8h419q18 0 19 14q0 16 -79 200.5t-101 221.5q-8 14 -23 14q-18 0 -39 -34q-209 -392 -209 -408z" />
<glyph unicode="B" horiz-adv-x="1155" d="M35 45q0 27 17.5 33t97.5 14h2q14 2 21 5t13.5 11.5t6.5 24.5v1120q0 27 -14.5 41.5t-32 17.5t-60.5 7q-37 0 -37 51q0 37 37 37q2 0 14.5 -1t34.5 -1h49q63 0 179 9t178 9q221 0 340 -82q125 -90 125 -235q0 -94 -54.5 -178t-140.5 -137q-4 -4 -4 -7q0 -2 6 -6 q121 -25 203 -124t82 -232q0 -135 -78 -238.5t-182 -148.5q-104 -47 -246 -47q-47 0 -140.5 6t-140.5 6q-33 0 -108.5 -2t-124.5 -2h-4q-12 0 -19.5 2t-13.5 13t-6 34zM369 168q0 -23 2 -34t16 -24.5t43 -17.5q61 -8 96 -8q162 0 275.5 87t113.5 241q0 102 -59 189t-182 114 q-55 12 -172 12h-105q-29 0 -28 -31v-528zM369 842q0 -27 20 -27h92h27q217 0 287 131q29 57 28 117q0 41 -14 84t-46 87t-94.5 71.5t-146.5 27.5q-115 0 -143 -22q-10 -8 -10 -27v-4v-438z" />
<glyph unicode="C" horiz-adv-x="1433" d="M39 686q0 152 62.5 291t164.5 240q219 209 522 208h3q109 0 201.5 -26.5t144 -54t55.5 -27.5q16 0 27.5 33.5t31.5 40.5q4 0 12.5 1t10.5 1q23 0 26 -25l15 -104q12 -104 26.5 -213t14.5 -117q0 -35 -41 -35q-20 0 -30.5 3t-15.5 14.5t-7 30t-7 48.5q-12 82 -53 135 q-70 88 -177 144.5t-241 56.5q-221 0 -384.5 -167t-163.5 -439q0 -283 167.5 -476.5t407.5 -193.5q180 0 329.5 110.5t205.5 293.5q8 27 30 26q33 0 33 -22l-51 -334q-8 -33 -45 -33h-2h-58q-31 0 -50 -11t-46 -32q-176 -102 -379 -102q-143 0 -279.5 55t-238.5 156 q-104 100 -162.5 239.5t-58.5 284.5z" />
<glyph unicode="D" horiz-adv-x="1452" d="M20 57q0 25 15.5 34t49.5 11t87 4q33 2 44 19.5t11 54.5v1037q0 29 -9 44t-29.5 21t-52.5 7t-77 3q-37 0 -36 47q0 43 45 43h372q190 0 330.5 -16t263.5 -74q166 -78 277.5 -231.5t111.5 -358.5q0 -260 -180 -453.5t-414 -236.5q-72 -12 -182 -12h-579q-48 0 -48 57z M410 190q0 -37 16 -54t57 -25q66 -12 131 -13q244 0 424.5 146.5t180.5 402.5q0 152 -63.5 293t-182.5 229q-174 127 -426 127q-88 0 -112.5 -12t-24.5 -51v-1043z" />
<glyph unicode="E" horiz-adv-x="1183" d="M18 37q0 18 10.5 27.5t45.5 22.5l100 38q29 10 37 26.5t8 53.5v1067q0 23 -9 29t-46 12q-59 2 -97 11t-38 46q0 45 39 45h942q35 0 45 -33l35 -157q25 -111 24 -115q0 -31 -43 -31q-31 0 -57 37q-47 88 -73 130t-40 51.5t-47 9.5h-385q-29 0 -43 -12.5t-17 -27t-3 -38.5 v-309q0 -45 40 -46h314q23 0 37 3.5t27.5 18.5t13.5 46v64q0 45 55 45q57 0 57 -60v-377q0 -59 -57 -59q-55 0 -55 45v111q0 45 -54 45h-282q-31 0 -48.5 -4t-35 -22.5t-17.5 -55.5v-469q0 -70 66 -78q88 -14 190 -14q70 0 169.5 11t125.5 32q18 14 71.5 111.5t70.5 107.5 q12 6 20 6q12 0 24.5 -12.5t12.5 -34.5v-2q0 -8 -64 -291q-4 -23 -17 -32t-44 -9h-704q-92 0 -171 -12.5t-83 -12.5q-25 0 -37.5 23t-12.5 39z" />
<glyph unicode="F" horiz-adv-x="1107" d="M20 1348q0 61 37 61q6 0 27.5 -2t60.5 -4t84 -2q35 0 154 3t178 3h389h11q55 0 67 -51q47 -213 47 -219q0 -20 -12 -33.5t-29 -13.5q-20 0 -34.5 14t-35.5 52l-59 104q-16 27 -29.5 35t-41.5 8h-377q-37 0 -48.5 -18.5t-11.5 -55.5v-342q0 -31 31 -31h342q20 0 28.5 8 t13.5 36t13 77q8 55 49 55q47 0 48 -43q0 -6 -2 -30.5t-4.5 -66.5t-2.5 -93t2.5 -95.5t4.5 -69t2 -28.5q0 -53 -56 -53q-25 0 -34 14.5t-13 48t-10 93.5q-2 29 -37 28h-334q-45 0 -45 -57v-508q0 -18 2 -27.5t8.5 -21.5t24.5 -18.5t49 -8.5q66 -2 106 -2t57 -9t17 -36v-18 q0 -43 -34 -43l-41 4q-39 2 -104.5 5t-131 3t-132.5 -3t-105 -5l-39 -4q-47 0 -47 47q0 29 10 40t36.5 12t69.5 5q61 6 62 64v1085q0 25 -6.5 37t-21.5 17t-41 6.5t-64 3.5q-48 0 -48 43z" />
<glyph unicode="G" horiz-adv-x="1415" d="M33 725q0 307 200.5 514t487.5 207q84 0 164 -20.5t127 -44t84 -45t41 -23.5h8q23 0 53.5 39t36.5 41q10 6 25 6q29 0 28 -29v-55q0 -72 3 -145.5t8.5 -119.5t7.5 -79l4 -35q0 -33 -60 -33q-23 0 -31 13.5t-10 36t-19 66.5t-50 91q-78 106 -197 172t-248 66 q-82 0 -159.5 -32t-146 -98.5t-110.5 -186.5t-42 -279q0 -156 35.5 -280t91 -198.5t128 -125t141 -70t138.5 -19.5q117 0 218.5 48.5t119.5 85.5q6 12 6 34v232q0 33 -16.5 46t-59.5 17t-116 10q-57 4 -58 48q0 47 45 47q6 0 34 -2t75 -4.5t102 -2.5h4q57 0 107.5 2.5 t78 4.5t34.5 2q27 0 40 -13.5t13 -29.5q0 -35 -51.5 -53.5t-57.5 -41.5q-2 -6 -2 -20v-346q0 -41 -28 -41q-12 0 -33 21.5t-29 21.5q-12 0 -29 -16q-180 -158 -419 -158q-291 0 -504 227.5t-213 546.5z" />
<glyph unicode="H" horiz-adv-x="1560" d="M29 1352q0 10 3 21t14 22.5t30 11.5q6 0 37.5 -1t85 -2t116.5 -1h7q66 0 121 1t86.5 2t37.5 1q14 0 22.5 -6t11.5 -14.5t5 -22.5q0 -4 1 -10t1 -8q0 -20 -12 -27.5t-47 -9.5t-96 -6q-47 -2 -47 -62v-338q0 -29 26 -29h692q35 0 35 37v303q0 74 -43 89q-16 6 -45 8 t-49.5 3t-35.5 11t-15 33q0 49 49 49q6 0 32.5 -1t75 -2t103.5 -1q63 0 127.5 2t103.5 4l37 2q39 0 39 -41q0 -29 -15.5 -41t-46.5 -16l-79 -10q-55 -6 -56 -60v-1075v-10q0 -61 58 -66q39 -4 67.5 -4t44 -11t15.5 -36q0 -53 -41 -53l-35 4l-96 5q-59 3 -118.5 3t-119 -3 t-94.5 -5l-35 -4q-33 0 -33 41q0 31 10.5 42t42 14t93.5 7q39 2 50 20.5t11 57.5v555q0 23 -26 23h-699q-31 0 -30 -35v-555q0 -18 3 -28.5t26.5 -23t68.5 -16.5q23 2 61.5 -6t38.5 -39q0 -57 -33 -57l-34 4q-35 2 -94.5 5t-118.5 3q-61 0 -122 -3t-96 -5l-34 -4 q-41 0 -41 55q0 23 11 31t42 10t86 6q33 2 43 18.5t10 47.5v1083q0 31 -13 45t-37 18l-54 7q-29 0 -59.5 7t-30.5 36z" />
<glyph unicode="I" horiz-adv-x="661" d="M27 53q0 20 12 28.5t51 10.5t109 6q43 2 43 58v1065q0 6 1 16t1 12q0 20 -11.5 28.5t-41 10.5t-82.5 4q-47 4 -48 43q0 57 45 58l33 -2l91 -6q56 -3 112 -3q57 0 105.5 2t75 4.5t32.5 2.5q35 0 35 -39q0 -23 -5 -35t-19.5 -17.5t-40 -7.5t-64.5 -6q-33 -2 -33 -35v-1106 q0 -47 37 -51q86 -2 124 -8t38 -39q0 -59 -41 -59l-37 4q-37 2 -99.5 5t-124 3t-125 -3t-100.5 -5l-37 -4q-31 0 -34 47q-2 6 -2 18z" />
<glyph unicode="J" horiz-adv-x="647" d="M-168 -276q0 41 25.5 70.5t66.5 29.5q51 0 102.5 -67.5t94.5 -67.5q70 0 102 125q18 66 19 133v1272q0 35 -17.5 49t-54.5 17t-94 9q-45 4 -45 43q0 55 45 56l35 -2l98 -5.5t121 -3.5h8q63 0 116.5 2t85 4.5t38.5 2.5q35 0 34 -41q0 -31 -12 -43.5t-42 -15.5t-77 -7 q-53 -4 -53 -70v-1099q0 -119 -49 -227.5t-131 -186.5q-18 -18 -52 -45t-94.5 -58.5t-105.5 -31.5q-70 0 -117 50.5t-47 107.5z" />
<glyph unicode="K" horiz-adv-x="1339" d="M25 1360q0 18 14 33.5t45 15.5q6 0 34.5 -2t80 -4t110.5 -2h2q59 0 110.5 2t80 4t35.5 2q31 0 45 -17.5t14 -35.5q0 -37 -75 -42t-83 -9q-31 -14 -30 -68v-8v-436q0 -35 26 -35q14 0 53 43q365 406 373 420q16 20 17 43q0 29 -21.5 42t-46.5 13t-46.5 10t-21.5 35 q0 43 47 43q6 0 34 -1t76 -2t106 -1h12q53 0 100 1t72.5 2t32.5 1q57 0 57 -43q0 -25 -27.5 -36t-78 -19.5t-76.5 -18.5q-41 -16 -81 -56t-67 -73l-320 -345q-46 -50 -46 -62q0 -14 16 -31l492 -519q66 -71 86 -83q35 -23 78.5 -30t60.5 -23q12 -16 12 -31 q0 -16 -15.5 -31.5t-43.5 -15.5q-10 0 -37 4t-60 4q-29 -1 -51 -1q-35 0 -57 2q-37 3 -51.5 11t-40.5 39l-450 518q-69 78 -85 78h-2q-29 0 -28 -41v-432q0 -31 7 -45t25.5 -21.5t50 -9.5t80.5 -6q45 -6 45 -45q0 -57 -41 -57l-36 4q-35 2 -96.5 5t-123.5 3q-59 0 -120.5 -3 t-98.5 -5l-35 -4q-35 0 -34 47q0 33 25.5 45t57.5 10h11q26 0 53 7q33 9 45 36q6 14 6 57v1018q0 29 -5 47.5t-15 28.5t-26.5 14.5t-41 7.5t-57.5 5q-57 4 -57 49z" />
<glyph unicode="L" horiz-adv-x="1153" d="M23 1337q0 51 38 52q4 0 77 -2.5t157 -4.5h14q66 0 121 1t88 3.5t39 2.5q23 0 29 -13.5t6 -42.5q0 -47 -45 -47q-68 0 -106 -1t-50 -12t-12 -46v-1039q0 -20 3 -32.5t15.5 -22.5t34.5 -10h391h6q76 0 113 55q10 16 45 92t41 82q12 16 31 17q10 0 22.5 -3.5t25.5 -14.5 t13 -29q0 -14 -41 -289q-2 -14 -5 -22.5t-15 -15.5t-35 -7l-121 4q-121 2 -325.5 5t-407.5 3h-109q-33 0 -32 33q0 16 5 24.5t18.5 13.5t35 10t53.5 11q47 12 47 66v6v1075q0 29 -10 38t-35.5 10t-68.5 1q-51 4 -51 49z" />
<glyph unicode="M" horiz-adv-x="2043" d="M37 33q0 29 16.5 42t50 16t84.5 9q31 4 45.5 19.5t15.5 38t5 51.5q51 608 51 915q0 25 -22 52q-2 2 -26 31.5t-40 44t-53 31.5t-78 17q-41 6 -41 37q0 45 37 45h295q35 0 51 -26l387 -647l240 -381q12 -25 35 -25q18 0 28 23l555 1038q10 18 37 18h297q31 0 31 -45 q0 -20 -11.5 -30.5t-25.5 -14.5t-52 -12t-71 -18q-49 -12 -49 -60q10 -993 10 -995v-14q0 -33 3 -49.5t19.5 -32t49.5 -19.5q45 -4 73.5 -6t43 -13.5t14.5 -39.5q0 -45 -41 -45l-39 4q-37 2 -99.5 5t-125.5 3q-61 0 -124 -3t-100 -5l-36 -4q-39 0 -39 49q0 31 30 42 q28 10 63 10h6h4q36 0 70 15q36 16 44 58q2 12 2 39v436q0 309 -6 328q-2 12 -15 12q-14 0 -28 -25q-102 -164 -311.5 -553t-223.5 -405q-20 -25 -45 -25q-14 0 -25.5 7.5t-19.5 18.5t-15 24.5l-12 23.5q-143 297 -327.5 609.5t-204.5 324.5q-2 2 -6 2q-8 0 -8 -10 q-12 -215 -13 -426q0 -375 13 -416q6 -23 37 -30q25 -6 51 -5h15q34 2 61.5 -11t27.5 -46q0 -47 -37 -47l-35 4q-35 2 -94 5t-116.5 3t-117 -3t-93.5 -5l-35 -4q-37 0 -37 45z" />
<glyph unicode="N" horiz-adv-x="1636" d="M18 1341q0 53 45 54h252q49 0 82 -39l322 -373l186 -209l265 -288q87 -93 107.5 -113.5t29.5 -20.5q14 0 14 21q4 147 4 219q0 309 -18 610q-2 61 -29 76.5t-104 24.5q-45 6 -46 43q0 18 14.5 33.5t45.5 15.5q4 0 29.5 -1t69.5 -3t97 -2q51 0 95.5 2t69 3t28.5 1 q43 0 43 -47q0 -35 -29 -44q-20 -6 -43 -7q-10 0 -21 1q-5 1 -9 1q-30 0 -56 -24q-29 -28 -28 -95q-8 -369 -9 -555q0 -152 2.5 -282t4.5 -203.5t2 -90.5q0 -96 -41 -96q-25 0 -101 86l-424 483q-449 500 -454 500l-8 -8q-27 -389 -27 -727v-60q0 -82 14.5 -105.5 t77.5 -27.5q74 0 125 -14q27 -14 27 -53t-35 -39l-35 4l-96 5q-59 3 -118.5 3t-120 -3t-95.5 -5l-37 -4q-43 0 -43 41q0 43 31 53q12 4 54 7t73.5 15.5t46.5 42.5q6 12 9 50.5t14 248.5l34 664v6v2q0 29 -67 90q-80 80 -183 88q-37 0 -37 45z" />
<glyph unicode="O" horiz-adv-x="1593" d="M37 723q0 311 223 531.5t533 220.5q324 0 543.5 -232.5t219.5 -552.5q0 -317 -215 -528t-520 -211q-150 0 -294 58.5t-253 162.5q-233 225 -237 551zM231 786q0 -184 62.5 -342.5t199 -266t320.5 -107.5q74 0 146.5 18t144.5 63.5t127 111t89 165.5t34 225 q0 164 -54.5 318.5t-171.5 257.5q-156 137 -368.5 137t-370.5 -148.5t-158 -431.5z" />
<glyph unicode="P" horiz-adv-x="1171" d="M29 37q0 29 9 39t37.5 13t80.5 7q35 4 46 16.5t11 39.5v1095q0 53 -45 53h-74q-14 0 -22.5 2.5t-17.5 14.5t-9 37q0 45 45 45h51q102 0 261 10t227 10q262 0 399 -123q119 -109 119 -266v-2q-2 -109 -60.5 -194.5t-148.5 -133.5q-152 -84 -461 -84h-61q-27 0 -27 -32 v-416q0 -35 13.5 -52.5t52.5 -19.5q94 -2 143 -5t63.5 -12t14.5 -40v-2q0 -49 -39 -49l-41 4q-41 2 -108.5 5t-133.5 3q-68 0 -136 -3t-107 -5l-41 -4q-41 0 -41 49zM393 713q0 -16 12.5 -20.5t63.5 -4.5q225 0 365.5 91t140.5 241q0 133 -123 220t-334 87q-82 0 -103.5 -6 t-21.5 -25v-583z" />
<glyph unicode="Q" horiz-adv-x="1540" d="M41 725q0 152 60.5 295t168.5 250q217 213 525 213q133 0 267 -51.5t236 -153.5q109 -106 167.5 -250.5t58.5 -298.5q0 -207 -103.5 -396.5t-269.5 -301.5q-6 -6 -6 -10.5t6 -8.5q80 -55 169 -148t136 -124q82 -55 174 -55q16 0 28.5 1t14.5 1q25 0 25 -21 q0 -25 -60.5 -53.5t-121.5 -28.5q-57 0 -112.5 20.5t-94.5 53.5l-80 71q-41 38 -72 70q-178 178 -223 178l-47 -6q-47 -4 -90 -4q-154 0 -295.5 60.5t-243.5 165.5q-217 221 -217 532zM240 803q0 -182 70.5 -349t209.5 -277.5t314 -110.5q213 0 360 166.5t147 441.5 q0 164 -54 323.5t-175 262.5q-145 123 -342 122q-213 0 -371.5 -154.5t-158.5 -424.5z" />
<glyph unicode="R" horiz-adv-x="1425" d="M29 1343q0 39 26 39h72q96 0 243.5 12.5t209.5 12.5q131 0 229 -35t149.5 -91t75 -113.5t23.5 -116.5q0 -133 -82 -223.5t-152 -116.5q-10 -6 -10 -10.5t4 -8.5q147 -174 255 -341t124 -185q57 -66 111 -66q31 0 54 22.5t34 22.5q20 0 20 -22q0 -37 -50 -93.5t-128 -56.5 q-104 0 -217 150l-205 291q-176 246 -188 254q-10 8 -35 8h-150q-29 0 -28 -31v-473v-6q0 -59 53 -66q68 -6 109.5 -9t59 -15.5t17.5 -42.5q0 -45 -41 -45l-39 4q-37 2 -99 5t-125.5 3t-126 -3t-99.5 -5l-37 -4q-37 0 -37 55q0 23 12.5 32t40 11t74.5 6q35 4 45 20.5 t10 51.5v1059q0 25 -7 38t-25.5 21t-52 13t-87.5 16q-30 5 -30 32zM403 1274l3 -2v-4v-482q0 -27 20 -31.5t115 -4.5q115 0 188 28q72 29 120 90.5t48 147.5q0 125 -103.5 218t-254.5 93q-96 0 -123 -20q-13 -8 -13 -33z" />
<glyph unicode="S" horiz-adv-x="1007" d="M51 131q0 6 7.5 41t19.5 112.5t20 180.5q4 43 45 43q31 0 39 -19.5t19 -99.5q6 -102 8 -109.5t45 -64.5q100 -135 264 -135q123 0 210 83t87 202q0 139 -119 225q-70 49 -208 84t-179 51q-121 47 -182 136t-61 196q0 141 104 243.5t262 102.5q74 0 133.5 -20.5t91 -41 t39.5 -20.5q12 0 36 41t50 41q33 0 33 -39q0 -4 -2 -25.5t-4 -60.5t-2 -84t2 -82t4 -58.5t2 -25.5q0 -31 -35 -31h-2q-29 0 -42 21.5t-36.5 72t-62.5 95.5q-102 115 -225 114q-86 0 -142.5 -56t-56.5 -136q0 -113 104 -186q63 -45 204 -80t186 -54q117 -49 187.5 -148 t70.5 -234q0 -184 -130 -312.5t-319 -128.5q-182 0 -311 113q-33 29 -64 28q-10 0 -27.5 -3t-25.5 -3q-37 0 -37 31z" />
<glyph unicode="T" horiz-adv-x="1417" d="M25 1094v2q0 8 59 282q6 31 43 31h1194q23 0 30 -11.5t11 -35.5q49 -250 49 -262q0 -18 -11 -31.5t-28 -13.5q-25 0 -47 39q-45 82 -69.5 121.5t-39 49t-47.5 9.5h-301q-45 0 -45 -55v-1074q0 -27 13.5 -36t54.5 -13t119 -10q25 -2 31 -13.5t6 -43.5q0 -41 -35 -41l-41 4 q-39 2 -105.5 5t-132 3t-132 -3t-105.5 -5l-41 -4q-41 0 -41 53q0 25 10 34t44 13t95 8q43 4 56.5 22.5t13.5 53.5v1038q0 63 -55 64h-306q-39 0 -52 -8.5t-25 -32.5q-59 -125 -79 -158t-46 -33q-20 0 -32.5 14.5t-12.5 37.5z" />
<glyph unicode="U" horiz-adv-x="1548" d="M35 1362q0 49 41 49q4 0 68.5 -2t138.5 -4h12q57 0 106.5 2t78 3t34.5 1q39 0 39 -53q0 -35 -32 -42t-95 -11q-66 -8 -66 -72v-641q0 -137 24 -230.5t101 -162.5q123 -113 369 -113q287 0 375 186q39 80 39 228v28q0 20 -1 63.5t-1 63.5v557q0 25 -4.5 42.5t-11.5 28.5 t-18 17.5t-26.5 10.5t-35 6t-42.5 4q-45 4 -45 45q0 45 39 45q6 0 29 -1t63.5 -3t88 -2t88.5 2t63.5 3t28.5 1q37 0 37 -53q0 -25 -14.5 -33t-35 -10t-40 -10.5t-34 -41t-14.5 -92.5q0 -4 -1 -10t-1 -10v-465q0 -16 1 -48t1 -48v-66q0 -143 -34.5 -258.5t-147.5 -195.5 q-145 -100 -387 -101q-139 0 -248.5 30t-171 68.5t-106.5 95t-60.5 88.5t-25.5 68q-27 92 -27 263q0 25 1 78t1 77v516q0 20 -6 31.5t-17.5 17t-26.5 7.5t-36 4q-55 6 -55 49z" />
<glyph unicode="V" horiz-adv-x="1699" d="M33 1370q0 41 59 41q6 0 36 -1t82 -3t112 -2q57 0 106 2t76.5 3t34.5 1q37 0 36 -39q0 -18 -5 -28.5t-17 -16.5t-34.5 -9t-57.5 -9q-55 -6 -55 -54q0 -16 12 -41q137 -305 294.5 -597.5t180.5 -319.5q8 -8 18 -8q14 0 23 16q238 432 409 893q12 37 13 45q0 47 -45 62 q-16 6 -54 6t-58.5 9t-20.5 40q0 51 45 51q6 0 32.5 -1t73.5 -3t102.5 -2t102.5 2t73.5 3t32.5 1q45 0 46 -55q0 -25 -15.5 -35t-37 -11t-52.5 -12.5t-51 -33.5q-23 -25 -79 -163t-197.5 -445.5t-329.5 -655.5q-25 -41 -52 -41q-29 0 -53 41l-374 674q-153 289 -199.5 395.5 t-72.5 158.5t-46 66q-6 4 -32.5 15.5t-44 26t-17.5 34.5z" />
<glyph unicode="W" horiz-adv-x="2052" d="M27 1354q0 57 51 57q4 0 29.5 -1t69.5 -3t97 -2q51 0 94.5 2t69 3t29.5 1q37 0 37 -51q0 -27 -17.5 -36t-39 -7t-47 -2t-38.5 -19q-10 -12 -10 -26.5t6 -26.5q109 -344 320 -907q14 -37 31 -37h6q2 0 7 6t8 12.5t12 27.5l18 41l26 65l35 88l47 120l60 152q4 16 4 25v2 q0 12 -135 403q-20 57 -36 65.5t-108 12.5q-35 0 -35 45q0 47 48 47q6 0 32.5 -1t74.5 -3t104 -2h2q55 0 102 2t73.5 3t32.5 1q35 0 35 -45q0 -14 -4 -22.5t-14 -13.5t-27.5 -7t-42.5 -4q-63 -8 -63 -51q0 -6 4 -27q96 -293 220 -603t148 -345q14 -18 25 -19h2q20 0 33 37 q133 281 235.5 590t102.5 361q0 25 -15.5 36t-45 13t-74.5 8q-41 4 -41 47q0 45 37 45q6 0 32.5 -1t72.5 -3t101 -2h2q53 0 99.5 2t72 3t31.5 1q35 0 35 -47q0 -27 -17.5 -38t-41 -10t-50 -9.5t-41.5 -36.5l-53 -156q-53 -154 -172 -449.5t-266 -611.5q-45 -98 -84 -98 q-47 0 -86 108l-214 542q-32 79 -38 79q-4 0 -8 -8l-75 -195l-59 -155l-46 -119l-35 -91l-24 -62q-11 -30 -18 -43t-11 -24.5t-9.5 -15.5t-7.5 -6t-8 -4q-8 -6 -18 -6q-29 0 -49.5 40t-30.5 75q-96 233 -182.5 466.5t-132.5 374.5l-80 249q-34 108 -35 112q-14 35 -61.5 37 t-57.5 16q-10 11 -10 29z" />
<glyph unicode="X" horiz-adv-x="1361" d="M10 27q0 23 4 34t14.5 17t31 9t51.5 9q29 6 48 15.5t36.5 27t36.5 44.5l51 71q301 422 301 428q0 8 -326 528q-43 70 -69.5 83.5t-100.5 19.5q-51 4 -51 53q0 45 41 45q6 0 36.5 -1t84 -3t114.5 -2h6q61 0 113.5 2t81.5 3t35 1q20 0 29.5 -11t9.5 -48q0 -23 -22.5 -31 t-49.5 -7t-49.5 -10.5t-22.5 -39.5q0 -12 25 -62l155 -255q50 -81 60 -96t14 -15t9 4q172 238 217 305t45 106q0 23 -9.5 37.5t-24.5 19.5t-35.5 7t-43.5 2q-53 4 -53 59q0 35 33 35q6 0 36.5 -1t84 -3t114.5 -2q63 0 116.5 2t85.5 3t38 1q37 0 37 -37t-17.5 -50t-43 -12 t-62.5 -5.5t-66 -26.5q-25 -18 -67.5 -71.5t-59.5 -80.5q-266 -377 -266 -385t352 -565q16 -27 26.5 -40t25 -24.5t27.5 -13.5l39 -6q26 -4 58 -6q53 -8 54 -57q0 -43 -35 -43l-37 4q-37 2 -100.5 5t-126.5 3q-61 0 -125 -3t-101 -5l-37 -4q-39 0 -38 43q0 20 6 30.5 t20 16.5t38 9l58 7q45 6 45 45v4q0 12 -11 34t-69 116l-184 291q0 6 -6 6h-3q-1 0 -9 -10.5l-15 -19.5l-31 -46l-47 -68l-75 -107l-100 -144q-23 -31 -23 -54q0 -16 7 -26.5t22.5 -14.5t40.5 -7l57 -7q55 -8 55 -53t-37 -45l-32 4q-31 2 -84.5 5t-106.5 3t-106.5 -3 t-83.5 -5l-33 -4q-31 0 -31 39z" />
<glyph unicode="Y" horiz-adv-x="1366" d="M23 1366q0 45 51 45q6 0 34.5 -1t80 -3t110.5 -2t109.5 2t79 3t34.5 1q37 0 37 -41q0 -31 -11 -42t-41 -13t-81 -6q-53 -6 -53 -47v-5q0 -14 39 -83l252 -435q16 -29 28 -28q4 0 17 12l228 313q79 111 104.5 155t25.5 73q0 33 -30 44q-23 9 -50 8q-7 0 -14.5 -0.5 t-14.5 -0.5q-26 0 -50 9q-30 11 -29 46q0 41 43 41q6 0 29.5 -1t64.5 -3t88 -2h6q66 2 122 4t60 2q29 0 43.5 -13.5t14.5 -27.5q0 -23 -43 -54.5t-64 -58.5l-297 -383q-158 -209 -185.5 -248.5t-27.5 -82.5v-400q0 -25 14.5 -33t64.5 -11t146 -7q45 -2 46 -49v-16 q0 -39 -33 -39l-41 4q-41 2 -110.5 5t-137.5 3q-70 0 -139.5 -3t-110.5 -5l-41 -4q-51 0 -51 57q0 27 11 36t47 12t102 5h6q18 2 26.5 4t17.5 12.5t9 28.5v424q0 25 -4 40.5t-14 31.5l-25 41l-377 604q-20 25 -59 29t-49 24q-8 13 -8 29z" />
<glyph unicode="Z" horiz-adv-x="1288" d="M33 43q0 18 16 39q397 563 864 1079q29 33 29 45q0 23 -29 23h-661q-51 0 -71.5 -13.5t-33 -55.5t-30.5 -120q-10 -45 -43 -45q-41 0 -41 52q0 8 4 48t8 108.5t4 150.5v76q0 57 43 57q31 0 53 -49q16 -55 113 -56h893q49 0 49 -36q0 -10 -10 -26.5t-51 -71.5l-123 -161 l-297 -372q-223 -270 -328 -455q-10 -14 -10 -31q0 -31 37 -40t168 -17q98 -6 200 -6h43q135 0 202 21.5t102 103.5q14 33 28.5 117t20.5 96q14 20 39 20q16 0 32.5 -14t16.5 -43v-2q0 -39 -4 -71t-10.5 -71.5t-10.5 -70.5q-2 -109 -14 -177.5t-66 -74.5h-1071h-4 q-57 0 -57 43z" />
<glyph unicode="[" horiz-adv-x="774" d="M47 541q0 74 59 73q16 0 31 -7t17 -7q8 0 8 14v840q0 70 51 70q10 0 79.5 -37t162.5 -37q59 0 118.5 14.5t94.5 30.5l34 14q10 0 17.5 -11t7.5 -21q0 -29 -71.5 -83.5t-166.5 -56.5q-12 0 -12 -14l2 -1583q0 -14 8.5 -18.5t23.5 -4.5t48 -10t70 -33q39 -25 67.5 -54.5 t28.5 -43.5q0 -27 -25 -27q-4 0 -39.5 18.5t-97 36t-131.5 17.5q-61 0 -114.5 -13.5t-84 -25.5t-36.5 -12q-33 0 -33 45v848q0 14 -8 14q-2 0 -17.5 -10t-32.5 -10q-59 0 -59 84zM256 -317q0 -10 8 -11q2 0 15.5 9.5t41 20.5t64.5 17q8 2 8 13v1597q0 8 -9 13.5t-22.5 7.5 t-39 11t-52.5 25q-4 4 -8 5q-6 0 -6 -11v-1697z" />
<glyph unicode="\" horiz-adv-x="481" d="M6 1221q0 16 23.5 30.5t40.5 14.5q23 0 30 -31q113 -559 244 -1100t131 -545q0 -18 -25.5 -35.5t-37.5 -17.5q-23 0 -23 23q-383 1653 -383 1661z" />
<glyph unicode="]" horiz-adv-x="774" d="M47 1477q0 10 7 21t18 11l34 -14q35 -16 94.5 -30.5t118.5 -14.5q92 0 162 37t80 37q51 0 51 -70v-840q0 -14 9 -14q2 0 16 7t31 7q59 0 59 -73q0 -84 -59 -84q-16 0 -31.5 10t-18.5 10q-8 0 -8 -14v-848q0 -45 -32 -45q-6 0 -37 12t-84.5 25.5t-114.5 13.5 q-70 0 -131 -17.5t-97 -36t-40 -18.5q-25 0 -25 27q0 14 28.5 44t67.5 54q37 23 70 33t48.5 10t23.5 4.5t8 18.5l2 1583q0 14 -12 14q-94 2 -166 56.5t-72 83.5zM381 -268q0 -10 8 -13q37 -6 64.5 -17t41 -20.5t15.5 -9.5q8 0 8 11v1697q0 10 -6 11q-4 0 -8 -5 q-27 -16 -52.5 -25t-39 -11t-22.5 -7.5t-9 -13.5v-1597z" />
<glyph unicode="^" horiz-adv-x="866" d="M104 991q0 16 15 41l166 283q55 92 72.5 113.5t39.5 31.5q16 6 31 6q14 0 27.5 -5t23.5 -14t19.5 -20.5t16.5 -22.5t15 -22l201 -319q33 -53 33 -73.5t-14.5 -34t-35 -13.5t-40 14.5t-33.5 33.5l-29 38q-121 158 -143.5 185.5t-34.5 27.5q-8 -2 -15 -8t-47 -54l-126 -155 q-18 -20 -31.5 -37.5t-30 -29t-34.5 -11.5q-20 0 -33 13.5t-13 31.5z" />
<glyph unicode="_" horiz-adv-x="1079" d="M55 -94q0 51 29 51h913q29 0 29 -51v-4q0 -57 -29 -58h-913q-29 0 -29 54v8z" />
<glyph unicode="`" d="M16 1360q0 33 22.5 54.5t53.5 21.5h2q57 0 113 -86l184 -274q31 -46 31 -64q0 -16 -11.5 -28.5t-27.5 -12.5h-4q-12 0 -27.5 12t-81.5 79l-202 206q-52 51 -52 92z" />
<glyph unicode="a" horiz-adv-x="866" d="M59 707q0 59 97.5 120.5t218.5 61.5q39 0 79 -8.5t90 -29t85 -69.5t43 -118q4 -49 4 -74v-404q0 -37 14.5 -58.5t27.5 -26.5t27 -5q37 0 57.5 34t33.5 34q18 0 18 -27q0 -47 -43 -104.5t-115 -57.5q-31 0 -60.5 13.5t-45 28t-27.5 28.5l-12 14q-2 0 -2 1t-2 1q-4 0 -7 -3 l-14.5 -15t-33.5 -27q-88 -57 -191 -57q-104 0 -168.5 66.5t-64.5 162.5v2q0 115 86 183q39 31 102 52t117.5 29.5t97.5 12.5l43 4q16 4 16 29v73q0 106 -49 164q-51 55 -119 56q-109 0 -176 -138q-16 -23 -45 -22q-31 0 -56.5 20.5t-25.5 53.5zM219 211q0 -76 43 -113 q29 -27 88 -26q45 0 86 19.5t57.5 35.5t26.5 29q12 16 12 47v49v84q0 37 -3 48t-17 11q-27 0 -64.5 -4t-93 -22.5t-86.5 -46.5q-49 -41 -49 -111z" />
<glyph unicode="b" horiz-adv-x="995" d="M8 1343q0 16 27 27q227 90 233 90q29 -4 29 -41q0 -68 -3 -328t-3 -282q0 -12 8 -12q4 0 38 21.5t98.5 42t142.5 20.5q180 0 289.5 -125t109.5 -328q0 -78 -18.5 -150.5t-84 -154.5t-169.5 -121q-106 -41 -230 -41q-53 0 -112.5 19.5t-86.5 19.5q-35 0 -62.5 -21.5 t-39.5 -21.5q-33 0 -33 61q0 121 3 600.5t3 598.5q0 29 -24 45l-91.5 56t-23.5 25zM283 133q0 -37 28 -49q94 -39 189 -39q156 0 252 96.5t96 251.5q0 166 -102.5 272.5t-239.5 106.5q-72 0 -146.5 -33.5t-74.5 -66.5v-525q0 -2 -1 -7t-1 -7z" />
<glyph unicode="c" horiz-adv-x="780" d="M35 403q0 209 120.5 341.5t317.5 132.5q109 0 184.5 -46.5t75.5 -105.5q0 -35 -24.5 -56.5t-57.5 -21.5q-45 0 -114.5 61.5t-133.5 61.5q-94 0 -163.5 -93t-69.5 -222q0 -145 92 -253t232 -108q70 0 122 28t81.5 55.5t45.5 27.5q14 0 24.5 -10.5t10.5 -24.5 q0 -16 -12 -33q-55 -74 -142 -124t-196 -50q-174 0 -283.5 125t-109.5 315z" />
<glyph unicode="d" horiz-adv-x="1011" d="M35 424q0 180 114.5 311t339.5 131h3q59 0 111 -7t81 -15l29 -8q14 0 14 18v344q0 16 -4 24.5t-16.5 16.5t-36.5 17l-66 26q-39 10 -39 33q0 10 19 22q254 125 264 125q25 0 24 -28q0 -18 -2 -104.5t-3 -236t-1 -323.5q0 -547 6 -602q0 -14 9.5 -19.5t30 -6.5t57.5 -3 q39 0 39 -28q0 -14 -10.5 -21.5t-46.5 -24t-64 -32.5q-39 -20 -72 -44t-47 -35t-23 -11q-16 0 -16 20v68q0 6 -4 6l-18 -12q-18 -12 -45 -27.5t-76 -28t-105 -12.5q-197 0 -321.5 135t-124.5 332zM172 442q0 -174 115.5 -276.5t240.5 -102.5q61 0 121 25t72 64q6 25 6 47 v458q0 29 -20 50q-84 78 -220 77q-154 0 -234.5 -91t-80.5 -251z" />
<glyph unicode="e" horiz-adv-x="837" d="M45 422q0 209 109.5 335t269.5 126q100 0 195.5 -56.5t156.5 -140.5q16 -20 17 -45v-2q0 -39 -60.5 -66.5t-105.5 -35.5q-317 -106 -377 -128t-60 -34q0 -18 12.5 -58.5t41 -97.5t94 -99t156.5 -42q139 0 243 100q29 29 47 29q33 0 33 -31q0 -16 -14 -33 q-66 -84 -161 -133t-202 -49q-53 0 -105 14.5t-105.5 48t-93.5 85t-65.5 132.5t-25.5 181zM182 477q0 -14 11 -14q4 0 190 72.5t192 74.5q18 8 19 25q0 27 -69.5 81t-145.5 54q-90 0 -143.5 -79t-53.5 -214z" />
<glyph unicode="f" horiz-adv-x="598" d="M20 774q0 61 43 62q76 0 90.5 2t14.5 18v2q6 250 88 393q59 100 167.5 162t207.5 62q76 0 111.5 -34t35.5 -73q0 -31 -23.5 -55.5t-62.5 -24.5q-29 0 -83 24.5t-87 24.5q-104 0 -157.5 -126t-53.5 -318v-19q0 -20 3 -26t18 -6h200q45 0 46 -41v-2q0 -63 -54 -64h-192 q-18 0 -19 -16v-588v-6q0 -47 41 -49q72 -2 94.5 -7.5t22.5 -35.5q0 -45 -33 -45l-26 4q-27 2 -71 5t-87 3q-45 0 -89 -3t-71 -5l-26 -4q-31 0 -31 51q0 16 8 22.5t29.5 9.5t58.5 9q12 2 19.5 8t9.5 14.5t2 18.5v8q8 102 8 588q0 16 -17.5 18t-91.5 2q-43 0 -43 37z" />
<glyph unicode="g" horiz-adv-x="901" d="M45 567q0 131 95.5 225.5t236.5 94.5q86 0 167 -37t91 -37q61 0 106 66q29 47 60 47q29 0 53.5 -27t24.5 -57q0 -35 -31 -61.5t-73 -43t-44 -18.5q-8 -8 -8 -17q0 -4 5 -20t11 -45t6 -64q0 -143 -98 -243.5t-241 -100.5q-39 0 -75 9.5t-44 9.5q-29 0 -60.5 -36t-31.5 -69 q0 -53 86 -71.5t222 -22.5t193 -20q92 -27 139.5 -90.5t47.5 -137.5q0 -106 -99.5 -193t-326.5 -87q-96 0 -170 18.5t-117 45t-69.5 63.5t-36 67.5t-9.5 63.5q0 29 8.5 56.5t19.5 45t25.5 33.5t24.5 24.5t19 12.5l10 6q4 4 4 8q0 2 -18.5 14.5t-38 40t-19.5 68.5q0 20 6 43 t16.5 41t22.5 34.5t26 30.5l22 22q9 9 18 15l6 7q2 2 2 6q0 8 -18.5 18t-50 39t-56.5 74q-39 65 -39 149zM170 -180q0 -90 95 -146.5t239 -56.5q141 0 200.5 46t59.5 104q0 84 -82 120q-41 20 -96.5 27.5t-157.5 11.5t-178 13h-6q-12 0 -35 -23q-39 -39 -39 -96zM205 592 q0 -119 59.5 -205t151.5 -86q82 0 132 65.5t50 161.5q0 113 -60.5 201t-154.5 88q-78 0 -128 -62.5t-50 -162.5z" />
<glyph unicode="h" horiz-adv-x="1052" d="M25 1303q0 23 32 38q225 131 236 132h2q31 0 31 -39l-2 -631q0 -14 10 -15q2 0 33.5 19.5t89 38t118.5 18.5q195 0 275 -186q31 -74 42 -169t17 -374q0 -20 4.5 -32.5t15.5 -19.5t21.5 -9t34.5 -4q35 -4 35 -37q0 -45 -27 -45l-26 4q-25 2 -70 5t-90 3q-43 0 -87 -3 t-71 -5l-26 -4q-23 0 -23 28v15q0 29 24.5 35t92.5 12q31 4 36 30.5t5 147.5q0 201 -25.5 290t-73.5 140q-74 74 -165 74q-61 0 -115.5 -34t-63.5 -67q-2 -8 -2 -26q0 -492 4 -506q6 -29 31 -41t52.5 -12t49 -9.5t21.5 -33.5q0 -43 -22 -43l-27 4q-27 2 -72 5t-90 3 q-47 0 -93 -3t-73 -5l-26 -4q-25 0 -25 41q0 16 7 24t23.5 11.5l45.5 9.5q23 4 34 17t12 22.5l3 29.5q10 311 10 564v8q0 453 -8 502q-4 25 -74.5 42t-70.5 44z" />
<glyph unicode="i" horiz-adv-x="497" d="M31 753.5q0 16.5 19.5 28t35.5 15.5q221 106 225 106h2q29 0 29 -33l-2 -65q-4 -66 -7 -177.5t-3 -221.5v-68q0 -186 6 -222t41 -40q33 -4 53.5 -7t29.5 -11.5t9 -24.5q0 -45 -25 -45l-26 4q-27 2 -72 5t-90 3t-90 -3t-72 -5l-26 -4q-31 0 -31 35q0 33 12 39t88 16 q35 6 45.5 23.5t10.5 50.5v96v193q0 89 1 140.5t1 61.5q0 16 -7.5 24.5t-38 21.5t-94.5 38q-24 10 -24 26.5zM213 1266q0 39 28.5 67.5t69.5 28.5t70 -27.5t29 -66.5q0 -41 -30 -70t-71 -29t-68.5 28t-27.5 69z" />
<glyph unicode="j" horiz-adv-x="475" d="M-74 -403q0 33 24.5 60.5t65.5 27.5q12 0 32 -3.5t30 -3.5q25 0 47 9.5t46 48.5t24 104q0 10 -1 57.5t-1 131.5v180q0 115 1 213t2 153.5t1 67.5q0 23 -7.5 34t-35 29.5t-80.5 49.5q-18 10 -19 24q0 10 9.5 17.5t64.5 30.5l172 73q8 4 14 4q20 0 21 -33q0 -10 -1 -60 t-2 -138t-1 -193q0 -162 2 -301t4 -218t2 -95q0 -43 -31 -90q-29 -41 -65.5 -85t-110.5 -104.5t-129 -60.5q-33 0 -55.5 19.5t-22.5 50.5zM213 1237q0 41 28.5 68.5t69.5 27.5t70 -27.5t29 -66.5t-30 -67.5t-71 -28.5t-68.5 27.5t-27.5 66.5z" />
<glyph unicode="k" horiz-adv-x="929" d="M10 1350q0 20 41 34q195 86 203 86q23 0 22 -34v-967q0 -8 7 -8q8 0 12 8q137 135 170 172t33 69.5t-27 54t-27 32.5v20q0 27 43 27h119q59 0 110.5 2t80 3t34.5 1q31 0 31 -39q0 -25 -10 -32t-47 -11t-62 -10q-43 -12 -93 -48t-82 -68l-122 -124q-14 -14 -14 -18 q0 -6 30 -42l208 -249q35 -43 57.5 -65.5t64.5 -47t87 -30.5q33 -4 32 -35q0 -43 -32 -43l-27 4l-76 5t-94 3t-94 -3l-76 -5l-27 -4q-27 0 -26 35v2q0 27 15 37t32.5 10t33 7t15.5 27q0 29 -96.5 156t-114.5 146q0 4 -8 4t-31.5 -26t-25.5 -34q-2 -6 -3 -22v-211 q0 -29 14.5 -35t80.5 -14q43 -10 43 -43q0 -35 -29 -35q-4 0 -23.5 2t-55.5 4t-79 2t-78.5 -2t-56 -4t-24.5 -2q-35 0 -35 37q0 35 50 42t54 44v1104q0 33 -24 49l-95 65z" />
<glyph unicode="l" horiz-adv-x="489" d="M23 1329v2q0 10 32.5 28.5t218.5 113.5q12 8 25 8q29 0 29 -39v-1297q0 -25 5 -38t16 -19t31.5 -9t51.5 -9q35 -6 35 -41q0 -41 -25 -41l-28 4q-27 2 -73 5t-91 3q-43 0 -87 -2t-71 -6l-26 -2q-29 0 -29 37v6q0 27 12 33t72 12q37 4 47 22.5t10 55.5v1042q0 14 -4 22.5 t-15.5 13.5t-27.5 15q-61 35 -84.5 50.5t-23.5 29.5z" />
<glyph unicode="m" horiz-adv-x="1480" d="M45 33q0 20 16.5 28.5t38 9.5t40 13t20.5 39v508q0 20 -4 29.5t-22.5 24.5t-55.5 42q-18 12 -18.5 24.5t20 27t145.5 91.5q33 18 39 19q18 0 19 -25v-78q0 -12 8 -12q2 0 31.5 22.5t82 45t107.5 22.5q37 0 73 -11t61.5 -27.5t45 -33t29.5 -28.5l12 -12q2 -2 8 -2 q4 0 7.5 1t8.5 5t11 10t23 16l36 23q102 59 199 59q90 0 167 -53t110 -170q23 -78 22 -240v-260q0 -33 8 -45t29.5 -18t60.5 -12q29 -4 29 -37q0 -41 -31 -41q-4 0 -26.5 3t-61.5 6t-84 3t-85 -3t-62.5 -6t-26.5 -3q-33 0 -33 35q0 20 7.5 28t28 13.5t61.5 11.5q29 4 35 16 t6 39v285q0 225 -84 299q-55 45 -127 45q-63 0 -125 -35t-62 -59l2 -11q2 -10 4.5 -25.5t4.5 -43t2 -58.5v-395q0 -2 -1 -8t-1 -8v-2q0 -18 7 -26.5t29.5 -11.5t63.5 -7q39 -6 39 -39q0 -43 -27 -43l-26 4q-27 2 -73 5t-91 3t-91 -3t-73 -5l-27 -4q-29 0 -28 45 q0 23 22.5 29t87.5 14q33 6 43 22.5t10 55.5v378q0 129 -65 179q-63 49 -143 49q-59 0 -100.5 -26.5t-55.5 -53.5q-8 -20 -8 -53v-494q0 -23 4 -34t16 -17t32.5 -9t55.5 -10q29 -4 29 -43q0 -33 -27 -32l-24 4q-25 2 -67 5t-83 3q-39 0 -72.5 -2t-53 -4t-23.5 -2 q-29 0 -29 41z" />
<glyph unicode="n" horiz-adv-x="1021" d="M23 25q0 29 12 35t67 14q35 6 44.5 21.5t9.5 47.5v490q0 35 -10.5 48t-82.5 67q-12 12 -12 20v2q0 10 25.5 25.5t169.5 91.5q12 8 20 8q25 0 25 -31v-80v-6l-2 -6q0 -8 6 -8h2l22 18l55 42t87 43.5t117 19.5h4q41 0 82 -11.5t89 -40t79.5 -91t39.5 -152.5q4 -35 5 -105 v-38q0 -31 -1.5 -111t-1.5 -205v-4q0 -20 5.5 -32.5t17.5 -17.5t30.5 -7t45.5 -6q29 -4 28 -37q0 -41 -30 -41q-6 0 -27.5 3t-60.5 6t-84 3q-41 0 -81 -3t-63 -5l-24 -4q-29 0 -29 41q0 18 9.5 25t33 11.5t64.5 10.5q33 4 32 49v317q0 156 -26 222q-29 68 -90.5 95 t-114.5 27q-80 0 -141.5 -48t-69.5 -85q-2 -8 -2 -26v-486v-6q0 -51 45 -57q43 -6 67.5 -10.5t34 -13.5t9.5 -31q0 -37 -27 -37l-29 4q-27 4 -71.5 7t-89.5 3q-43 0 -86.5 -3t-67.5 -5l-27 -4q-32 0 -32 37z" />
<glyph unicode="o" horiz-adv-x="956" d="M43 418q0 207 131 337t311 130q184 0 306 -131t122 -336q0 -211 -127 -334t-309 -123q-193 0 -313.5 132t-120.5 325zM203 428q0 -162 77.5 -264.5t202.5 -102.5q127 0 209 103.5t82 245.5q0 160 -91 269t-212 109q-100 0 -184 -88t-84 -272z" />
<glyph unicode="p" horiz-adv-x="1011" d="M27 -426q0 25 23.5 33t94.5 20q45 8 45 58v946v4q0 31 -26 41q-100 43 -118.5 52t-18.5 20v2q0 8 28 25l191 112q33 16 35 16q16 0 16 -22v-121q0 -12 6 -12l27 28q27 29 83 61.5t126 43.5q16 2 47 2q168 0 277.5 -130t109.5 -313q0 -203 -136.5 -328.5t-351.5 -125.5 q-31 0 -62.5 3t-49.5 7l-19 2q-14 0 -14 -23v-280v-6q0 -49 45 -54q92 -4 128 -12t36 -51q0 -31 -25 -31q-4 0 -29.5 2t-68.5 4t-94 2q-66 0 -131.5 -4t-102.5 -8l-39 -4q-32 0 -32 41zM324 152q0 -39 53 -64q66 -33 135 -33q129 0 226.5 97.5t97.5 246.5q0 147 -96.5 255 t-221.5 108q-80 0 -135 -43q-59 -43 -59 -127v-440z" />
<glyph unicode="q" horiz-adv-x="1075" d="M33 436q0 78 29.5 154t91 144.5t172 111.5t254.5 43q76 0 153.5 -13.5t79.5 -13.5q35 0 53.5 25.5t24.5 25.5q23 0 22 -112q0 -8 1 -26.5t1 -29.5v-1030q0 -61 21.5 -77.5t91.5 -24.5q29 -6 29 -29q0 -45 -37 -45l-37 2q-35 2 -76 2q-70 0 -136 -6t-103 -12l-37 -6 q-37 0 -37 37q0 20 12 29t38 14.5t63 11.5q59 12 59 82v352q0 14 -12 14q-4 0 -37 -19.5t-94.5 -38.5t-133.5 -19q-186 0 -321 133t-135 321zM180 477q0 -156 113 -263.5t266 -107.5q55 0 112.5 17.5t78.5 36.5q18 18 18 61q0 96 -6 481q0 39 -29 60q-90 59 -203 59 q-145 0 -247.5 -100.5t-102.5 -243.5z" />
<glyph unicode="r" horiz-adv-x="733" d="M25 23q0 31 25.5 39t66.5 12q37 8 37 49v543q0 27 -20.5 43t-92.5 65q-6 6 -8 14q0 6 27 20l188 91l18 6q25 0 25 -41v-82q0 -10 6 -10q2 0 91 60.5t122 72.5q25 8 59 8q55 0 107.5 -25.5t52.5 -64.5v-2q-2 -23 -22.5 -44t-32.5 -27q-12 -10 -37 -25.5t-47 -15.5 q-25 0 -55.5 25.5t-65.5 25.5q-43 0 -94 -32t-66 -52q-8 -12 -8 -37v-492v-8q0 -57 51 -61q59 -4 93 -7t45.5 -11.5t11.5 -30.5q0 -41 -29 -41l-31 4q-29 2 -78 5t-98 3q-51 0 -101 -3t-79 -5l-29 -4q-32 0 -32 35z" />
<glyph unicode="s" horiz-adv-x="692" d="M53 256q0 39 7.5 51t30 12t27.5 -18t7 -52t12 -56q18 -39 86 -80t148 -41q70 0 118 37.5t48 99t-49.5 101.5t-103.5 49.5t-93 23.5q-227 66 -228 250q0 96 81 168.5t214 72.5q27 0 50.5 -3t37 -5t15.5 -2q8 0 23.5 10.5t27.5 10.5q25 0 33 -39l22 -122q16 -89 17 -93 q0 -33 -47 -33q-18 0 -28.5 15.5t-19 43t-18.5 41.5q-23 31 -72 55.5t-96 24.5q-53 0 -91 -30.5t-38 -77.5q0 -102 162 -148q70 -12 148.5 -38.5t127.5 -84.5q61 -72 62 -161q0 -106 -84 -191.5t-228 -85.5q-78 0 -159.5 26.5t-122.5 75.5q-25 27 -25 70q0 31 -1 72t-1 51z " />
<glyph unicode="t" horiz-adv-x="681" d="M41 774q0 12 28.5 37t83 83t101.5 140q23 37 41 37q27 0 27 -33q0 -14 -1.5 -71.5t-1.5 -71.5q0 -41 41 -41h185q4 0 8 -1t8 -1q53 0 53 -39q0 -37 -18 -59q-10 -10 -37 -11h-240q-20 0 -20 -18q-2 -383 -2 -479q0 -152 104 -152q55 0 131 61.5t92.5 61.5t27 -11 t10.5 -26q0 -12 -15 -35q-162 -184 -285 -184q-74 0 -135 59.5t-71 190.5q-2 23 -2 65q0 51 4 244t4 209q0 18 -15 19h-65q-41 -1 -41 26z" />
<glyph unicode="u" horiz-adv-x="1034" d="M14 815v6q0 27 23 29q205 12 213 12q20 0 20 -24v-420q0 -137 37 -211q29 -55 85.5 -96t131.5 -41q100 0 174 73q35 39 35 62v504q0 20 -6 32.5t-21.5 18.5t-42 11t-65.5 11q-31 6 -31 33q0 31 29 35q66 2 119 4t73.5 3t35.5 1h24q31 0 31 -41v-641q0 -16 17 -24.5 t85 -36.5q16 -6 16 -24.5t-4 -26t-18 -12.5t-33.5 -9t-60.5 -20.5t-88 -42.5q-12 -8 -23 -9q-29 0 -29 41v47q0 8 -6 9l-37 -27q-37 -25 -104.5 -51.5t-142.5 -26.5q-125 0 -210 79t-104 218q-6 61 -6 125q0 37 1 177t1 153q0 37 -55 57q-10 4 -30.5 9t-27 11.5t-6.5 22.5z " />
<glyph unicode="v" horiz-adv-x="1003" d="M4 823.5q0 26.5 25 26.5q6 0 30.5 -1t68.5 -3t95 -2q53 0 97.5 2t69 3t30.5 1q29 0 29 -41q0 -23 -10.5 -30t-47.5 -8t-57 -5q-41 -4 -41 -37q0 -29 73.5 -208t170.5 -343l2 -2q8 -14 16 -14q10 0 10 10q100 174 148.5 342t48.5 221q0 18 -14.5 26.5t-41 9.5t-65.5 5h-4 q-27 6 -27 35v10q0 29 25 29q4 0 25.5 -1t58.5 -3t80 -2t79.5 2t58 3t26.5 1q31 0 30 -39q0 -37 -50 -40t-62 -21q-4 -8 -13 -41q-70 -252 -168 -480.5t-129 -261.5q-14 -18 -39 -18q-35 0 -67 63q-156 276 -259.5 501.5t-105.5 229.5q-12 16 -31.5 22.5t-32.5 6.5 t-22.5 12.5t-9.5 39z" />
<glyph unicode="w" horiz-adv-x="1540" d="M12 815q0 35 37 35q4 0 23.5 -1t54.5 -3t74 -2h6q39 0 71.5 2t52 3t23.5 1q25 0 25 -35q0 -25 -19.5 -35t-44 -8t-44 -4t-19.5 -27q0 -14 12 -39q96 -256 230 -514q8 -16 20 -16q8 0 14.5 7t6.5 9q57 90 120.5 212t65.5 147v2q0 10 -35 85t-43 87q-16 27 -45 37t-51.5 9 t-40 6t-17.5 30q0 47 33 47q6 0 33 -1t75 -3t103 -2t103.5 2t75 3t32.5 1q29 0 29 -31v-12q0 -16 -5 -21.5t-32 -8.5t-82 -7q-47 -4 -47 -43q0 -33 82 -205t174 -319q16 -29 33 -29q18 0 24 19q94 166 146.5 329.5t52.5 202.5q0 23 -13.5 33t-41 12t-70.5 4q-37 4 -37 41 q0 35 25 35q4 0 24.5 -2t56 -4t78.5 -2t80 2t58.5 4t25.5 2q31 0 31 -35q0 -33 -24.5 -41t-38.5 -4q-29 -6 -47.5 -46t-36 -111.5t-87 -239.5t-180.5 -373q-27 -51 -57 -51q-14 0 -27.5 11t-30 37t-39.5 70l-61 111l-112 219q-16 33 -22.5 33t-82.5 -162 q-143 -291 -153 -301q-14 -18 -37 -18q-31 0 -60 53q-96 184 -177 362.5t-120 276.5t-41 100q-10 18 -27.5 25.5t-29.5 7.5t-22.5 9t-10.5 32z" />
<glyph unicode="x" horiz-adv-x="907" d="M18 33q0 23 16.5 31t41 11t37.5 11q4 2 18 23l88 114l65 84l42 54q20 26 26 35.5t12.5 17.5t6.5 9v5q0 6 -9 14q-129 166 -190 238t-71.5 79t-41.5 11q-37 4 -36 45q0 35 26 35q4 0 25.5 -1t59.5 -3t83 -2t84 2t60.5 3t25.5 1q25 0 25 -29v-4q0 -4 1 -10t1 -8 q0 -12 -6.5 -17.5t-22.5 -7.5t-45 -4q-33 -4 -33 -29q0 -8 29 -49l49 -64l34 -44l19 -26q8 -11 11.5 -14t5.5 -4t4 -1q4 0 10 6q143 190 143 200q0 23 -50 26t-50 28q0 51 27 51q4 0 22.5 -1t51 -3t71.5 -2h6q39 0 73 2t53.5 3t23.5 1q27 0 26.5 -31t-12.5 -37t-63 -12 q-41 -6 -59.5 -18.5t-47.5 -44.5q-174 -229 -174 -233.5t283 -362.5q12 -16 19 -23.5t14.5 -11.5t16.5 -5t25 -5q20 -4 21 -25q0 -49 -31 -49q-4 0 -25.5 2t-58.5 4t-82 2t-82 -2t-58.5 -4t-25.5 -2q-25 0 -24 35q0 23 10 31t43 12t49 8q25 8 25 26q0 4 -8 21 q-188 233 -191 235h-2q-2 2 -4 2q-6 0 -27 -26l-133 -180q-29 -37 -28 -52q0 -29 56 -35t64 -16q4 -6 4 -20q0 -41 -26 -41q-4 0 -22.5 2t-52.5 4t-73 2t-71.5 -2t-52 -5t-23.5 -3q-21 0 -21 43z" />
<glyph unicode="y" horiz-adv-x="958" d="M8 815q0 35 29 35q4 0 24.5 -1t56.5 -3t79 -2t78.5 2t57 3t25.5 1q27 0 27 -33q0 -16 -3 -25.5t-11.5 -13.5t-23.5 -5t-38 -3q-31 -4 -30 -29q0 -20 65.5 -175.5t157.5 -327.5q0 -12 14 -13q8 0 16 15q2 4 5 6q168 401 168 481q0 23 -10.5 33t-33 11t-55.5 3 q-39 4 -39 39q0 37 39 37q4 0 24.5 -1t56.5 -3t79 -2h2q41 0 77 2t55.5 3t23.5 1q25 0 24 -41q0 -23 -11 -28t-69 -11q-14 -2 -19 -4t-15.5 -24.5t-19.5 -52.5t-40 -109l-67 -172q-199 -483 -367 -738q-82 -127 -152 -127q-33 0 -56 21.5t-23 52.5q0 37 26.5 63.5t76.5 58.5 t77 56q43 39 90 117t47 119q0 53 -227 508q-102 195 -112.5 209t-26 19t-25.5 5t-18.5 10t-8.5 33z" />
<glyph unicode="z" horiz-adv-x="739" d="M25 47q0 18 26 62l418 563q12 12 12 26q0 29 -41 29h-243q-14 0 -20.5 -6t-11.5 -26.5t-13 -59.5q-10 -33 -35 -33q-37 0 -37 27l6 26q4 29 9 79t5 104v61q0 31 33 31h12q23 0 27 -38t31 -38h446q45 0 45 -31q0 -4 -12 -28l-406 -550q-59 -81 -59 -89q0 -23 33 -23h297 q6 0 17 -1t14 -1q18 0 26 9.5t13.5 37l15.5 78.5q10 33 35 33q49 0 49 -35l-6 -41q-6 -39 -13.5 -109.5t-7.5 -142.5q0 -39 2 -76v-35q0 -41 -61 -40q-35 0 -35 36v123q0 31 -35 31h-475q-61 0 -61 47z" />
<glyph unicode="{" horiz-adv-x="514" d="M92 524q0 2 30 18.5t60.5 64.5t30.5 128q0 78 -27.5 229.5t-27.5 235.5q0 145 67.5 210t151.5 65q49 0 49 -11q0 -2 -22.5 -13t-53.5 -43t-47 -77q-14 -43 -14 -94q0 -55 27.5 -183t27.5 -212q0 -86 -23.5 -162t-47 -117t-23.5 -43q0 -4 22.5 -36.5t44 -96t21.5 -141.5 q0 -68 -28.5 -197t-28.5 -192q0 -66 20.5 -119t45 -79t44.5 -42l21 -16q0 -6 -33 -7q-86 0 -157.5 69t-71.5 220q0 82 32.5 220.5t32.5 199.5q0 47 -11 85t-29.5 61.5t-35 39t-30.5 23.5l-15 8q-2 2 -2 4z" />
<glyph unicode="|" horiz-adv-x="313" d="M102 -379v1823q0 27 50 26h4q55 0 55 -26v-1823q0 -27 -53 -27h-8q-48 0 -48 27z" />
<glyph unicode="}" horiz-adv-x="514" d="M94 1464q0 10 49 11q84 0 151.5 -64.5t67.5 -210.5q0 -84 -27.5 -235.5t-27.5 -229.5q0 -49 11.5 -87t29 -59.5t32.5 -33.5t30 -18l16 -7q2 -2 2 -4q0 -8 -8 -10q-115 -63 -115 -213q0 -61 33 -199.5t33 -220.5q0 -152 -72 -220.5t-158 -68.5q-33 0 -32 7l20 16 q20 16 45 42t45.5 79t20.5 119q0 63 -29 192t-29 197q0 78 21.5 141.5t44 96t22.5 36.5t-8 21q-86 135 -86 301q0 84 27.5 212t27.5 183q0 63 -21.5 110.5t-47 68t-47 33.5t-21.5 15z" />
<glyph unicode="~" horiz-adv-x="923" d="M49 395q0 8 45 79t76 101q59 63 135 64q59 0 153.5 -59.5t153.5 -59.5q51 0 95.5 27.5t74 61.5t31.5 34q8 4 12 4q10 0 29.5 -11t19.5 -26q0 -12 -38.5 -66.5t-114.5 -111.5t-154 -57q-74 0 -158.5 60.5t-136.5 60.5q-90 0 -176 -131q-6 -10 -14 -10.5t-20.5 15 t-12.5 25.5z" />
<glyph unicode="&#xa1;" horiz-adv-x="665" d="M221 1276q0 43 31 73.5t74 30.5t74.5 -29.5t31.5 -74.5q0 -47 -30.5 -76t-73.5 -29t-75 31t-32 74zM250 18v48q0 281 33.5 525.5t56.5 321.5q10 33 35 33q33 0 33 -67v-27q2 -109 6 -214.5t8 -185t8 -149.5t7 -114t5 -70l2 -25q0 -33 -26 -45q-139 -82 -148 -82 q-20 0 -20 51z" />
<glyph unicode="&#xa8;" horiz-adv-x="522" d="M25 1266q0 39 29.5 67.5t68.5 28.5q41 0 69.5 -27.5t28.5 -66.5q0 -41 -28.5 -70t-69.5 -29t-69.5 28t-28.5 69zM301 1266q0 39 29.5 67.5t68.5 28.5q41 0 70 -27.5t29 -66.5q0 -41 -29 -70t-70 -29t-69.5 28t-28.5 69z" />
<glyph unicode="&#xa9;" horiz-adv-x="1581" d="M61 680q0 299 212 515t518 216q303 0 516 -216t213 -515q0 -297 -211 -513t-521 -216q-297 0 -512 212t-215 517zM166 680q0 -262 185.5 -443.5t439 -181.5t439 180.5t185.5 446.5q0 254 -181 438.5t-446 184.5q-260 0 -441 -184.5t-181 -440.5zM309 655 q0 197 142.5 338.5t343.5 141.5q76 0 134 -16.5t88 -34t36 -17.5q4 0 14 23.5t35 23.5q20 0 24 -20q35 -238 35 -273q0 -18 -6 -26.5t-29 -8.5q-20 0 -28 14.5t-8 34t-8.5 49t-26.5 54.5q-102 127 -264 127q-137 0 -242 -105.5t-105 -279.5q0 -178 106.5 -300t258.5 -122 q111 0 206 68.5t130 185.5q8 20 29 20q23 0 22 -20l-31 -201q-4 -37 -37 -37h-36q-14 0 -19.5 -2t-17 -10t-23.5 -14q-115 -68 -244 -68q-201 0 -340 140t-139 335z" />
<glyph unicode="&#xab;" horiz-adv-x="747" d="M45 395q0 8 14 23q311 266 320 266q12 0 23.5 -13.5t11.5 -25.5q0 -6 -7.5 -16.5t-51.5 -60.5l-140 -156q-6 -12 -6 -15q0 -10 194 -235q8 -8 9 -17q0 -12 -11.5 -25.5t-23.5 -13.5q-8 0 -320 271q-12 8 -12 18zM334 395q0 12 14 23l273 233q39 33 47 33q12 0 23 -13.5 t11 -25.5q0 -6 -7 -16.5t-51 -60.5l-140 -156q-8 -8 -8 -15q0 -8 27 -40l167 -195q8 -6 8 -17q0 -12 -10 -25.5t-22 -13.5q-8 0 -49 34l-271 237q-12 8 -12 18z" />
<glyph unicode="&#xac;" horiz-adv-x="1435" d="M109 518v27q0 45 49 45h1155q16 0 16 -19v-446q0 -41 -39 -41h-28q-49 0 -50 53v336h-1056q-47 0 -47 45z" />
<glyph unicode="&#xad;" d="M25 369v28q0 20 7 29.5t31 28.5l282 197q50 34 63 34q33 0 32 -80q0 -29 -37 -57l-173 -123l-103 -75l-40 -26.5t-26 -9.5q-36 1 -36 54z" />
<glyph unicode="&#xae;" horiz-adv-x="1062" d="M102 1114q0 180 125 306t301 126q180 0 306.5 -126t126.5 -306q0 -176 -127 -302t-306 -126q-176 0 -301 126t-125 302zM174 1114q0 -143 105.5 -247.5t248.5 -104.5q147 0 253 104.5t106 247.5q0 147 -105.5 253t-253.5 106q-143 0 -248.5 -106t-105.5 -253zM291 1356 q0 18 16 18h25q35 0 88 5t76 5q92 0 134 -42t42 -93q0 -49 -30 -82.5t-56 -44.5q59 -68 119 -164q25 -45 53 -45q8 0 16 8.5t17 8.5q12 0 12 -15q0 -12 -20.5 -34.5t-49.5 -22.5q-45 0 -82 55l-135 187q-4 10 -16 10h-54q-4 0 -4 -6v-170l-2 -4q0 -16 44 -18.5t44 -26.5 q0 -23 -20 -23l-29 2q-31 2 -65 2q-25 0 -46.5 -1t-33.5 -2t-15 -1q-20 0 -20 25q0 10 4 14t15.5 6t29.5 4q16 0 17 21v381q0 14 -14.5 18t-43.5 8q-16 1 -16 17zM436 1333l2 -2v-176q0 -8 41 -8q117 0 117 90q0 45 -32 77t-85 32q-43 -1 -43 -13z" />
<glyph unicode="&#xb0;" horiz-adv-x="434" d="M25 1214.5q0 81.5 57 140t135 58.5q80 0 136.5 -59.5t56.5 -139.5q0 -82 -56.5 -140t-136.5 -58q-78 0 -135 58.5t-57 140zM106 1217q0 -51 33 -87t80 -36q49 0 81 36.5t32 83.5q0 49 -34 86t-81 37t-79 -35.5t-32 -84.5z" />
<glyph unicode="&#xb1;" horiz-adv-x="1435" d="M109 20v27q0 45 49 45h1130q41 0 41 -39v-28q0 -49 -55 -50h-1118q-47 0 -47 45zM109 618v29q0 45 49 45h501v395q0 33 41 33h29q29 0 38 -10t9 -33v-385h512q41 0 41 -41v-28q0 -49 -55 -50h-498v-391q0 -37 -43 -37h-28q-27 0 -36.5 9.5t-9.5 29.5v389h-503 q-47 0 -47 45z" />
<glyph unicode="&#xb4;" d="M31 1012q0 14 9 30.5t56 86.5l150 221q55 86 112 86q31 0 53.5 -21.5t22.5 -54.5q0 -39 -49 -92q-266 -272 -285 -287q-14 -10 -30 -10q-18 0 -28.5 12.5t-10.5 28.5z" />
<glyph unicode="&#xb6;" horiz-adv-x="1536" d="M53 604q0 178 67.5 340t176.5 271.5t241 174t261 64.5q84 0 148.5 -27.5t95 -55.5t32.5 -28q6 0 39 39t90 74q74 45 142 45q66 0 101.5 -38t35.5 -85q0 -53 -37 -89t-74 -36q-18 0 -32.5 12.5t-14.5 30.5q0 20 23.5 44t23.5 40q0 14 -14.5 27.5t-42.5 13.5 q-63 0 -119.5 -51t-83.5 -104q-127 -256 -127 -609v-8q2 -272 59.5 -494.5t131.5 -336.5q66 -96 118 -127q2 -2 55.5 -11.5t53.5 -41.5q0 -25 -23.5 -40.5t-54.5 -15.5h-8q-57 0 -119 60q-49 47 -117 174q-61 119 -104 270q-18 -18 -45 -38.5t-55.5 -37t-81 -29 t-123.5 -16.5q-8 0 -20.5 -1t-20.5 -1q-254 0 -416 185.5t-162 455.5zM406 655q0 -268 92 -443t237 -175q35 0 72 13t37 30q0 2 -15.5 47t-33 107.5t-32.5 174t-15 232.5q0 160 23.5 304.5t52 223t52 134t23.5 59.5q0 12 -31.5 20.5t-56.5 8.5q-119 0 -209 -111t-139 -256 q-57 -172 -57 -367v-2zM801 662q0 -178 36.5 -367t59.5 -189q8 0 29.5 29t31.5 51q-49 270 -49 459q0 129 17.5 248t37 186.5t37 114.5t17.5 49q0 20 -24.5 57t-39.5 37q-2 0 -10 -8q-143 -282 -143 -667z" />
<glyph unicode="&#xb7;" d="M111 532.5q0 51.5 35.5 85t85 33.5t86 -35.5t36.5 -85t-34.5 -84t-86.5 -34.5q-49 0 -85.5 34.5t-36.5 86z" />
<glyph unicode="&#xb8;" horiz-adv-x="407" d="M39 -366.5q0 8.5 7 29t22 20.5l18 -5q18 -4 44 -8t42 -4q35 0 56.5 18.5t21.5 49.5q0 41 -41 70.5t-105 33.5q-10 0 -10 6q0 4 66 166h63q-4 -16 -18 -59l-15 -41q0 -6 9 -6h4q76 0 124 -41t48 -115q0 -63 -38 -109.5t-130 -46.5q-45 0 -99.5 10.5t-62.5 16.5 q-6 6 -6 14.5z" />
<glyph unicode="&#xbb;" horiz-adv-x="747" d="M45 645q0 14 12.5 26.5t24.5 12.5q6 0 50 -37l265 -229q16 -10 17 -23q0 -10 -13 -18l-217 -191l-83 -69.5t-19 -10.5q-12 0 -22.5 11.5t-10.5 25.5q0 12 193 236q10 10 10 18q0 4 -6 15l-193 213q-8 12 -8 20zM332 645q0 14 12 26.5t25 12.5q4 0 6 -1t22 -17l45 -37 l96 -82l150 -129q12 -8 12 -23q0 -12 -12 -18l-217 -191l-83 -69.5t-19 -10.5q-10 0 -21.5 12.5t-11.5 24.5q0 8 25 38l171 198q6 10 6.5 16t-6.5 17l-175 195q-25 30 -25 38z" />
<glyph unicode="&#xbf;" horiz-adv-x="778" d="M31 268q0 70 34.5 131.5t85.5 108.5l100 96q50 49 85 115.5t35 146.5q0 10 -1 24.5t-1 20.5q0 37 17 55.5t36 18.5q55 0 55 -113q0 -90 -43 -176t-93 -143t-93 -137t-43 -158q0 -88 51 -150.5t127 -62.5q43 0 74.5 23.5t46 52.5t40 52.5t60.5 23.5q37 0 61.5 -27 t24.5 -64q0 -92 -131 -120q-80 -18 -166 -19q-178 0 -270 95t-92 206zM272 1292q0 49 36 85t87 36q49 0 86 -35t37 -88q0 -51 -37 -85t-86 -34t-86 36t-37 85z" />
<glyph unicode="&#xc0;" horiz-adv-x="1681" d="M18 31q0 20 6.5 31.5t17.5 16.5t28.5 8t40.5 5q49 6 71.5 25.5t44.5 72.5q152 338 314 656l265 503q36 67 52 81q23 16 49 16q55 0 86 -78l295 -680q223 -543 228 -549q27 -41 87 -49t66 -31q4 -16 4 -26q0 -45 -41 -45l-35 4q-33 2 -89 5t-111 3q-66 0 -120 -3t-86 -6 t-38 -3q-41 0 -41 35q0 25 5 36t18.5 17t37 9t60.5 7q41 8 41 39t-49 183.5t-105 279.5q-8 20 -37 20h-481q-33 0 -47 -24q-70 -129 -124 -268.5t-54 -174.5q0 -20 8 -32.5t24.5 -17.5t40.5 -8l56 -7q45 -4 45 -49t-45 -45q-6 0 -35 3t-80 6t-110 3q-53 0 -106.5 -3 t-84.5 -5l-31 -4q-41 0 -41 43zM590 1765q0 33 23.5 53.5t56.5 20.5q45 0 106 -47q305 -221 314 -233q8 -16 8 -27q0 -18 -12.5 -28.5t-28.5 -10.5h-2q-12 0 -381 176q-8 2 -21.5 10.5l-28 18.5t-24.5 28.5t-10 38.5zM610 729q0 -8 13 -8h419q18 0 19 14q0 16 -79 200.5 t-101 221.5q-8 14 -23 14q-18 0 -39 -34q-209 -392 -209 -408z" />
<glyph unicode="&#xc1;" horiz-adv-x="1681" d="M18 31q0 20 6.5 31.5t17.5 16.5t28.5 8t40.5 5q49 6 71.5 25.5t44.5 72.5q152 338 314 656l265 503q36 67 52 81q23 16 49 16q55 0 86 -78l295 -680q223 -543 228 -549q27 -41 87 -49t66 -31q4 -16 4 -26q0 -45 -41 -45l-35 4q-33 2 -89 5t-111 3q-66 0 -120 -3t-86 -6 t-38 -3q-41 0 -41 35q0 25 5 36t18.5 17t37 9t60.5 7q41 8 41 39t-49 183.5t-105 279.5q-8 20 -37 20h-481q-33 0 -47 -24q-70 -129 -124 -268.5t-54 -174.5q0 -20 8 -32.5t24.5 -17.5t40.5 -8l56 -7q45 -4 45 -49t-45 -45q-6 0 -35 3t-80 6t-110 3q-53 0 -106.5 -3 t-84.5 -5l-31 -4q-41 0 -41 43zM610 729q0 -8 13 -8h419q18 0 19 14q0 16 -79 200.5t-101 221.5q-8 14 -23 14q-18 0 -39 -34q-209 -392 -209 -408zM735 1532q0 27 39 53l283 205q61 47 104 47q33 0 57.5 -21.5t24.5 -52.5q0 -27 -18.5 -49t-28.5 -27.5l-37 -19.5 q-371 -176 -383 -176q-16 0 -28.5 11.5t-12.5 29.5z" />
<glyph unicode="&#xc2;" horiz-adv-x="1681" d="M18 31q0 20 6.5 31.5t17.5 16.5t28.5 8t40.5 5q49 6 71.5 25.5t44.5 72.5q152 338 314 656l265 503q36 67 52 81q23 16 49 16q55 0 86 -78l295 -680q223 -543 228 -549q27 -41 87 -49t66 -31q4 -16 4 -26q0 -45 -41 -45l-35 4q-33 2 -89 5t-111 3q-66 0 -120 -3t-86 -6 t-38 -3q-41 0 -41 35q0 25 5 36t18.5 17t37 9t60.5 7q41 8 41 39t-49 183.5t-105 279.5q-8 20 -37 20h-481q-33 0 -47 -24q-70 -129 -124 -268.5t-54 -174.5q0 -20 8 -32.5t24.5 -17.5t40.5 -8l56 -7q45 -4 45 -49t-45 -45q-6 0 -35 3t-80 6t-110 3q-53 0 -106.5 -3 t-84.5 -5l-31 -4q-41 0 -41 43zM610 729q0 -8 13 -8h419q18 0 19 14q0 16 -79 200.5t-101 221.5q-8 14 -23 14q-18 0 -39 -34q-209 -392 -209 -408zM653 1520q0 12 22 40l154 191q37 49 78 49q25 0 51 -28l168 -206t25 -44q0 -10 -8 -20.5t-25 -10.5q-25 0 -53 29l-113 94 q-31 25 -49 24q-27 0 -110.5 -73.5t-108.5 -73.5q-31 0 -31 29z" />
<glyph unicode="&#xc3;" horiz-adv-x="1681" d="M18 31q0 20 6.5 31.5t17.5 16.5t28.5 8t40.5 5q49 6 71.5 25.5t44.5 72.5q152 338 314 656l265 503q36 67 52 81q23 16 49 16q55 0 86 -78l295 -680q223 -543 228 -549q27 -41 87 -49t66 -31q4 -16 4 -26q0 -45 -41 -45l-35 4q-33 2 -89 5t-111 3q-66 0 -120 -3t-86 -6 t-38 -3q-41 0 -41 35q0 25 5 36t18.5 17t37 9t60.5 7q41 8 41 39t-49 183.5t-105 279.5q-8 20 -37 20h-481q-33 0 -47 -24q-70 -129 -124 -268.5t-54 -174.5q0 -20 8 -32.5t24.5 -17.5t40.5 -8l56 -7q45 -4 45 -49t-45 -45q-6 0 -35 3t-80 6t-110 3q-53 0 -106.5 -3 t-84.5 -5l-31 -4q-41 0 -41 43zM584 1542q0 6 35.5 60.5t56.5 74.5q47 47 102 47q45 0 115 -44t115 -44q41 0 75.5 23.5t55 47.5t29 24t23.5 -8.5t15 -18.5q0 -12 -40 -59.5t-74 -73.5q-57 -45 -119 -45q-55 0 -117.5 46t-101.5 46t-71 -26.5t-50.5 -53.5t-22.5 -27 q-6 0 -16 11.5t-10 19.5zM610 729q0 -8 13 -8h419q18 0 19 14q0 16 -79 200.5t-101 221.5q-8 14 -23 14q-18 0 -39 -34q-209 -392 -209 -408z" />
<glyph unicode="&#xc4;" horiz-adv-x="1681" d="M18 31q0 20 6.5 31.5t17.5 16.5t28.5 8t40.5 5q49 6 71.5 25.5t44.5 72.5q152 338 314 656l265 503q36 67 52 81q23 16 49 16q55 0 86 -78l295 -680q223 -543 228 -549q27 -41 87 -49t66 -31q4 -16 4 -26q0 -45 -41 -45l-35 4q-33 2 -89 5t-111 3q-66 0 -120 -3t-86 -6 t-38 -3q-41 0 -41 35q0 25 5 36t18.5 17t37 9t60.5 7q41 8 41 39t-49 183.5t-105 279.5q-8 20 -37 20h-481q-33 0 -47 -24q-70 -129 -124 -268.5t-54 -174.5q0 -20 8 -32.5t24.5 -17.5t40.5 -8l56 -7q45 -4 45 -49t-45 -45q-6 0 -35 3t-80 6t-110 3q-53 0 -106.5 -3 t-84.5 -5l-31 -4q-41 0 -41 43zM610 729q0 -8 13 -8h419q18 0 19 14q0 16 -79 200.5t-101 221.5q-8 14 -23 14q-18 0 -39 -34q-209 -392 -209 -408zM666 1587q0 39 29.5 67.5t68.5 28.5q41 0 69.5 -27.5t28.5 -66.5q0 -41 -28.5 -69.5t-69.5 -28.5t-69.5 27.5t-28.5 68.5z M942 1587q0 39 29.5 67.5t68.5 28.5q41 0 70 -27.5t29 -66.5q0 -41 -29 -69.5t-70 -28.5t-69.5 27.5t-28.5 68.5z" />
<glyph unicode="&#xc5;" horiz-adv-x="1681" d="M18 31q0 20 6.5 31.5t17.5 16.5t28.5 8t40.5 5q49 6 71.5 25.5t44.5 72.5q152 338 314 656l265 503q36 67 52 81q23 16 49 16q55 0 86 -78l295 -680q223 -543 228 -549q27 -41 87 -49t66 -31q4 -16 4 -26q0 -45 -41 -45l-35 4q-33 2 -89 5t-111 3q-66 0 -120 -3t-86 -6 t-38 -3q-41 0 -41 35q0 25 5 36t18.5 17t37 9t60.5 7q41 8 41 39t-49 183.5t-105 279.5q-8 20 -37 20h-481q-33 0 -47 -24q-70 -129 -124 -268.5t-54 -174.5q0 -20 8 -32.5t24.5 -17.5t40.5 -8l56 -7q45 -4 45 -49t-45 -45q-6 0 -35 3t-80 6t-110 3q-53 0 -106.5 -3 t-84.5 -5l-31 -4q-41 0 -41 43zM610 729q0 -8 13 -8h419q18 0 19 14q0 16 -79 200.5t-101 221.5q-8 14 -23 14q-18 0 -39 -34q-209 -392 -209 -408zM733 1640q0 74 51.5 127.5t122.5 53.5q74 0 124 -53.5t50 -127.5q0 -76 -51 -128t-122.5 -52t-123 52t-51.5 128z M815 1642.5q0 -40.5 27.5 -71.5t66.5 -31t65.5 31t26.5 69.5t-27.5 70.5t-66.5 32t-65.5 -30t-26.5 -70.5z" />
<glyph unicode="&#xc6;" horiz-adv-x="2068" d="M-8 31q0 35 22 43q8 2 39 7t58.5 14t46 25.5t47.5 68.5l112 205q84 153 201 343l170 268q78 118 113 163.5t52 73.5t17 38q0 25 -45 34t-153 23q-41 6 -41 45q0 53 28 54l78 -6q80 -6 203 -11q51 -2 485.5 -2t442.5 -2q20 -6 24 -33q8 -53 34 -159.5t26 -108.5 q0 -16 -16.5 -27.5t-34.5 -11.5q-27 0 -39 21q-6 10 -47 95t-50 97q-12 18 -65 19h-391q-31 0 -45.5 -14.5t-16.5 -29t-2 -42.5v-301q0 -45 41 -46h313q51 0 64.5 19.5t13.5 75.5v37q0 45 55.5 45t55.5 -60v-377q0 -59 -55.5 -59t-55.5 45v80q0 49 -9 62.5t-44 13.5h-283 q-31 0 -49 -4t-34.5 -22.5t-16.5 -55.5v-453q0 -51 10.5 -69.5t55.5 -24.5q88 -14 192 -14q102 0 187.5 13t105.5 30q18 14 71.5 111.5t69.5 107.5q10 6 21 6q37 0 37 -47q0 -12 -64 -293q-6 -29 -20.5 -35t-51.5 -6h-686q-98 0 -160.5 -3t-88 -6t-31.5 -3q-35 0 -35 43 q0 31 25.5 43t58.5 12t66.5 10t46.5 37q8 16 8 60v403q-2 18 -23 18h-340h-62q-19 0 -31.5 -4t-14.5 -6t-8 -12q-80 -127 -145.5 -269.5t-65.5 -175.5q0 -27 17 -40t50 -16t80 -11q37 -4 37 -47q0 -45 -35 -45l-35 4l-96 5q-59 3 -117 3q-59 0 -117.5 -3t-93.5 -5l-34 -4 q-33 0 -33 43zM657 729q0 -8 19 -8h364q18 0 19 18v529q-2 25 -21 24q-12 0 -22 -10q-61 -61 -210 -298t-149 -255z" />
<glyph unicode="&#xc7;" horiz-adv-x="1433" d="M39 686q0 152 62.5 291t164.5 240q219 209 522 208h3q109 0 201.5 -26.5t144 -54t55.5 -27.5q16 0 27.5 33.5t31.5 40.5q4 0 12.5 1t10.5 1q23 0 26 -25l15 -104q12 -104 26.5 -213t14.5 -117q0 -35 -41 -35q-20 0 -30.5 3t-15.5 14.5t-7 30t-7 48.5q-12 82 -53 135 q-70 88 -177 144.5t-241 56.5q-221 0 -384.5 -167t-163.5 -439q0 -283 167.5 -476.5t407.5 -193.5q180 0 329.5 110.5t205.5 293.5q8 27 30 26q33 0 33 -22l-51 -334q-8 -33 -45 -33h-2h-58q-31 0 -50 -11t-46 -32q-162 -92 -346 -102l-12 -33q0 -6 8 -6h6q76 0 124 -41 t48 -115v-2q0 -61 -39 -107t-129 -46q-45 0 -100 10t-62 16q-8 6 -8 14.5t7.5 29t21.5 20.5l18 -4q18 -4 45 -8.5t43 -4.5q35 0 56.5 18.5t21.5 47.5q0 41 -41 71.5t-104 34.5q-10 0 -10 6.5t38 100.5q-299 14 -501.5 228t-202.5 505z" />
<glyph unicode="&#xc8;" horiz-adv-x="1183" d="M18 37q0 18 10.5 27.5t45.5 22.5l100 38q29 10 37 26.5t8 53.5v1067q0 23 -9 29t-46 12q-59 2 -97 11t-38 46q0 45 39 45h942q35 0 45 -33l35 -157q25 -111 24 -115q0 -31 -43 -31q-31 0 -57 37q-47 88 -73 130t-40 51.5t-47 9.5h-385q-29 0 -43 -12.5t-17 -27t-3 -38.5 v-309q0 -45 40 -46h314q23 0 37 3.5t27.5 18.5t13.5 46v64q0 45 55 45q57 0 57 -60v-377q0 -59 -57 -59q-55 0 -55 45v111q0 45 -54 45h-282q-31 0 -48.5 -4t-35 -22.5t-17.5 -55.5v-469q0 -70 66 -78q88 -14 190 -14q70 0 169.5 11t125.5 32q18 14 71.5 111.5t70.5 107.5 q12 6 20 6q12 0 24.5 -12.5t12.5 -34.5v-2q0 -8 -64 -291q-4 -23 -17 -32t-44 -9h-704q-92 0 -171 -12.5t-83 -12.5q-25 0 -37.5 23t-12.5 39zM330 1765q0 33 23.5 53.5t56.5 20.5q45 0 106 -47q305 -221 313 -233q8 -16 9 -27q0 -18 -12.5 -28.5t-28.5 -10.5h-2 q-12 0 -381 176q-8 2 -22.5 10.5t-28 18.5t-23.5 28.5t-10 38.5z" />
<glyph unicode="&#xc9;" horiz-adv-x="1183" d="M18 37q0 18 10.5 27.5t45.5 22.5l100 38q29 10 37 26.5t8 53.5v1067q0 23 -9 29t-46 12q-59 2 -97 11t-38 46q0 45 39 45h942q35 0 45 -33l35 -157q25 -111 24 -115q0 -31 -43 -31q-31 0 -57 37q-47 88 -73 130t-40 51.5t-47 9.5h-385q-29 0 -43 -12.5t-17 -27t-3 -38.5 v-309q0 -45 40 -46h314q23 0 37 3.5t27.5 18.5t13.5 46v64q0 45 55 45q57 0 57 -60v-377q0 -59 -57 -59q-55 0 -55 45v111q0 45 -54 45h-282q-31 0 -48.5 -4t-35 -22.5t-17.5 -55.5v-469q0 -70 66 -78q88 -14 190 -14q70 0 169.5 11t125.5 32q18 14 71.5 111.5t70.5 107.5 q12 6 20 6q12 0 24.5 -12.5t12.5 -34.5v-2q0 -8 -64 -291q-4 -23 -17 -32t-44 -9h-704q-92 0 -171 -12.5t-83 -12.5q-25 0 -37.5 23t-12.5 39zM332 1532q0 27 39 53l282 205q61 47 105 47q33 0 57.5 -21.5t24.5 -52.5q0 -27 -18.5 -49t-29 -27.5l-36.5 -19.5 q-371 -176 -383 -176q-16 0 -28.5 11.5t-12.5 29.5z" />
<glyph unicode="&#xca;" horiz-adv-x="1183" d="M18 37q0 18 10.5 27.5t45.5 22.5l100 38q29 10 37 26.5t8 53.5v1067q0 23 -9 29t-46 12q-59 2 -97 11t-38 46q0 45 39 45h942q35 0 45 -33l35 -157q25 -111 24 -115q0 -31 -43 -31q-31 0 -57 37q-47 88 -73 130t-40 51.5t-47 9.5h-385q-29 0 -43 -12.5t-17 -27t-3 -38.5 v-309q0 -45 40 -46h314q23 0 37 3.5t27.5 18.5t13.5 46v64q0 45 55 45q57 0 57 -60v-377q0 -59 -57 -59q-55 0 -55 45v111q0 45 -54 45h-282q-31 0 -48.5 -4t-35 -22.5t-17.5 -55.5v-469q0 -70 66 -78q88 -14 190 -14q70 0 169.5 11t125.5 32q18 14 71.5 111.5t70.5 107.5 q12 6 20 6q12 0 24.5 -12.5t12.5 -34.5v-2q0 -8 -64 -291q-4 -23 -17 -32t-44 -9h-704q-92 0 -171 -12.5t-83 -12.5q-25 0 -37.5 23t-12.5 39zM336 1520q0 12 22 40l154 191q37 49 78 49q25 0 51 -28l168 -206t25 -44q0 -10 -8.5 -20.5t-24.5 -10.5q-25 0 -53 29l-113 94 q-31 25 -49 24q-27 0 -111 -73.5t-108 -73.5q-31 0 -31 29z" />
<glyph unicode="&#xcb;" horiz-adv-x="1183" d="M18 37q0 18 10.5 27.5t45.5 22.5l100 38q29 10 37 26.5t8 53.5v1067q0 23 -9 29t-46 12q-59 2 -97 11t-38 46q0 45 39 45h942q35 0 45 -33l35 -157q25 -111 24 -115q0 -31 -43 -31q-31 0 -57 37q-47 88 -73 130t-40 51.5t-47 9.5h-385q-29 0 -43 -12.5t-17 -27t-3 -38.5 v-309q0 -45 40 -46h314q23 0 37 3.5t27.5 18.5t13.5 46v64q0 45 55 45q57 0 57 -60v-377q0 -59 -57 -59q-55 0 -55 45v111q0 45 -54 45h-282q-31 0 -48.5 -4t-35 -22.5t-17.5 -55.5v-469q0 -70 66 -78q88 -14 190 -14q70 0 169.5 11t125.5 32q18 14 71.5 111.5t70.5 107.5 q12 6 20 6q12 0 24.5 -12.5t12.5 -34.5v-2q0 -8 -64 -291q-4 -23 -17 -32t-44 -9h-704q-92 0 -171 -12.5t-83 -12.5q-25 0 -37.5 23t-12.5 39zM348 1587q0 39 30 67.5t68 28.5q41 0 70 -27.5t29 -66.5q0 -41 -29 -69.5t-69.5 -28.5t-69.5 27.5t-29 68.5zM625 1587 q0 39 29.5 67.5t68.5 28.5q41 0 69.5 -27.5t28.5 -66.5q0 -41 -28.5 -69.5t-69.5 -28.5t-69.5 27.5t-28.5 68.5z" />
<glyph unicode="&#xcc;" horiz-adv-x="661" d="M27 53q0 20 12 28.5t51 10.5t109 6q43 2 43 58v1065q0 6 1 16t1 12q0 20 -11.5 28.5t-41 10.5t-82.5 4q-47 4 -48 43q0 57 45 58l33 -2l91 -6q56 -3 112 -3q57 0 105.5 2t75 4.5t32.5 2.5q35 0 35 -39q0 -23 -5 -35t-19.5 -17.5t-40 -7.5t-64.5 -6q-33 -2 -33 -35v-1106 q0 -47 37 -51q86 -2 124 -8t38 -39q0 -59 -41 -59l-37 4q-37 2 -99.5 5t-124 3t-125 -3t-100.5 -5l-37 -4q-31 0 -34 47q-2 6 -2 18zM72 1765q0 33 23.5 53.5t56.5 20.5q45 0 106 -47q305 -221 313 -233q8 -16 9 -27q0 -18 -12.5 -28.5t-28.5 -10.5h-2q-12 0 -381 176 q-8 2 -22.5 10.5t-28 18.5t-23.5 28.5t-10 38.5z" />
<glyph unicode="&#xcd;" horiz-adv-x="661" d="M27 53q0 20 12 28.5t51 10.5t109 6q43 2 43 58v1065q0 6 1 16t1 12q0 20 -11.5 28.5t-41 10.5t-82.5 4q-47 4 -48 43q0 57 45 58l33 -2l91 -6q56 -3 112 -3q57 0 105.5 2t75 4.5t32.5 2.5q35 0 35 -39q0 -23 -5 -35t-19.5 -17.5t-40 -7.5t-64.5 -6q-33 -2 -33 -35v-1106 q0 -47 37 -51q86 -2 124 -8t38 -39q0 -59 -41 -59l-37 4q-37 2 -99.5 5t-124 3t-125 -3t-100.5 -5l-37 -4q-31 0 -34 47q-2 6 -2 18zM72 1532q0 27 39 53l282 205q61 47 105 47q33 0 57.5 -21.5t24.5 -52.5q0 -27 -18.5 -49t-29 -27.5l-36.5 -19.5q-371 -176 -383 -176 q-16 0 -28.5 11.5t-12.5 29.5z" />
<glyph unicode="&#xce;" horiz-adv-x="661" d="M27 53q0 20 12 28.5t51 10.5t109 6q43 2 43 58v1065q0 6 1 16t1 12q0 20 -11.5 28.5t-41 10.5t-82.5 4q-47 4 -48 43q0 57 45 58l33 -2l91 -6q56 -3 112 -3q57 0 105.5 2t75 4.5t32.5 2.5q35 0 35 -39q0 -23 -5 -35t-19.5 -17.5t-40 -7.5t-64.5 -6q-33 -2 -33 -35v-1106 q0 -47 37 -51q86 -2 124 -8t38 -39q0 -59 -41 -59l-37 4q-37 2 -99.5 5t-124 3t-125 -3t-100.5 -5l-37 -4q-31 0 -34 47q-2 6 -2 18zM78 1520q0 12 22 40l154 191q37 49 78 49q25 0 51 -28q143 -174 167.5 -206t24.5 -44q0 -10 -8 -20.5t-24 -10.5q-25 0 -54 29l-112 94 q-31 25 -49 24q-27 0 -111 -73.5t-108 -73.5q-31 0 -31 29z" />
<glyph unicode="&#xcf;" horiz-adv-x="661" d="M27 53q0 20 12 28.5t51 10.5t109 6q43 2 43 58v1065q0 6 1 16t1 12q0 20 -11.5 28.5t-41 10.5t-82.5 4q-47 4 -48 43q0 57 45 58l33 -2l91 -6q56 -3 112 -3q57 0 105.5 2t75 4.5t32.5 2.5q35 0 35 -39q0 -23 -5 -35t-19.5 -17.5t-40 -7.5t-64.5 -6q-33 -2 -33 -35v-1106 q0 -47 37 -51q86 -2 124 -8t38 -39q0 -59 -41 -59l-37 4q-37 2 -99.5 5t-124 3t-125 -3t-100.5 -5l-37 -4q-31 0 -34 47q-2 6 -2 18zM90 1587q0 39 30 67.5t68 28.5q41 0 70 -27.5t29 -66.5q0 -41 -29 -69.5t-70 -28.5t-69.5 27.5t-28.5 68.5zM367 1587q0 39 29.5 67.5 t68.5 28.5q41 0 69.5 -27.5t28.5 -66.5q0 -41 -28.5 -69.5t-69.5 -28.5t-69.5 27.5t-28.5 68.5z" />
<glyph unicode="&#xd1;" horiz-adv-x="1636" d="M18 1341q0 53 45 54h252q49 0 82 -39l322 -373l186 -209l265 -288q87 -93 107.5 -113.5t29.5 -20.5q14 0 14 21q4 147 4 219q0 309 -18 610q-2 61 -29 76.5t-104 24.5q-45 6 -46 43q0 18 14.5 33.5t45.5 15.5q4 0 29.5 -1t69.5 -3t97 -2q51 0 95.5 2t69 3t28.5 1 q43 0 43 -47q0 -35 -28.5 -44.5t-64.5 -5t-64.5 -23.5t-28.5 -95q-8 -369 -9 -555q0 -152 2.5 -282t4.5 -203.5t2 -90.5q0 -96 -41 -96q-25 0 -101 86l-424 483q-449 500 -454 500l-8 -8q-27 -389 -27 -727v-60q0 -82 14.5 -105.5t77.5 -27.5q74 0 125 -14q27 -14 27 -53 t-35 -39l-35 4l-96 5q-59 3 -118.5 3t-120 -3t-95.5 -5l-37 -4q-43 0 -43 41q0 43 31 53q12 4 54 7t73.5 15.5t46.5 42.5q6 12 9 50.5t14 248.5l34 664v6v2q0 29 -67 90q-80 80 -183 88q-37 0 -37 45zM508 1522q0 6 36 60t56 75q47 47 102 47q47 0 115 -44t115 -44 q41 0 75.5 23.5t55 47t29 23.5t23.5 -8t15 -19q0 -12 -39.5 -59t-74.5 -74q-57 -45 -119 -45q-55 0 -117.5 46t-101.5 46t-72 -26.5t-50 -53t-21 -26.5q-6 0 -16.5 11.5t-10.5 19.5z" />
<glyph unicode="&#xd2;" horiz-adv-x="1593" d="M37 723q0 311 223 531.5t533 220.5q324 0 543.5 -232.5t219.5 -552.5q0 -317 -215 -528t-520 -211q-150 0 -294 58.5t-253 162.5q-233 225 -237 551zM231 786q0 -184 62.5 -342.5t199 -266t320.5 -107.5q74 0 146.5 18t144.5 63.5t127 111t89 165.5t34 225 q0 164 -54.5 318.5t-171.5 257.5q-156 137 -368.5 137t-370.5 -148.5t-158 -431.5zM543 1767q0 33 23.5 53.5t56.5 20.5q45 0 106 -47q305 -221 313 -233q8 -16 9 -27q0 -18 -12.5 -28.5t-28.5 -10.5h-2q-12 0 -381 176q-84 41 -84 96z" />
<glyph unicode="&#xd3;" horiz-adv-x="1593" d="M37 723q0 311 223 531.5t533 220.5q324 0 543.5 -232.5t219.5 -552.5q0 -317 -215 -528t-520 -211q-150 0 -294 58.5t-253 162.5q-233 225 -237 551zM231 786q0 -184 62.5 -342.5t199 -266t320.5 -107.5q74 0 146.5 18t144.5 63.5t127 111t89 165.5t34 225 q0 164 -54.5 318.5t-171.5 257.5q-156 137 -368.5 137t-370.5 -148.5t-158 -431.5zM543 1536q0 27 39 53l282 205q61 47 105 47q33 0 57.5 -21.5t24.5 -52.5q0 -27 -18.5 -49t-29 -27t-36.5 -20q-371 -176 -383 -176q-16 0 -28.5 11.5t-12.5 29.5z" />
<glyph unicode="&#xd4;" horiz-adv-x="1593" d="M37 723q0 311 223 531.5t533 220.5q324 0 543.5 -232.5t219.5 -552.5q0 -317 -215 -528t-520 -211q-150 0 -294 58.5t-253 162.5q-233 225 -237 551zM231 786q0 -184 62.5 -342.5t199 -266t320.5 -107.5q74 0 146.5 18t144.5 63.5t127 111t89 165.5t34 225 q0 164 -54.5 318.5t-171.5 257.5q-156 137 -368.5 137t-370.5 -148.5t-158 -431.5zM549 1524q0 12 22 41l154 190q37 49 78 49q25 0 51 -28l168 -206t25 -44q0 -10 -8.5 -20.5t-24.5 -10.5q-25 0 -53 29l-113 94q-31 25 -49 24q-27 0 -111 -73.5t-108 -73.5q-31 0 -31 29z " />
<glyph unicode="&#xd5;" horiz-adv-x="1593" d="M37 723q0 311 223 531.5t533 220.5q324 0 543.5 -232.5t219.5 -552.5q0 -317 -215 -528t-520 -211q-150 0 -294 58.5t-253 162.5q-233 225 -237 551zM231 786q0 -184 62.5 -342.5t199 -266t320.5 -107.5q74 0 146.5 18t144.5 63.5t127 111t89 165.5t34 225 q0 164 -54.5 318.5t-171.5 257.5q-156 137 -368.5 137t-370.5 -148.5t-158 -431.5zM485 1546q0 6 36 60.5t57 74.5q47 47 102 48q45 0 114.5 -44.5t114.5 -44.5q41 0 76 24t55.5 47.5t28.5 23.5t23.5 -8.5t15.5 -18.5q0 -12 -40 -59t-75 -74q-57 -45 -119 -45 q-55 0 -117.5 46t-101.5 46t-70.5 -26.5t-50 -53t-22.5 -26.5q-6 0 -16.5 11t-10.5 19z" />
<glyph unicode="&#xd6;" horiz-adv-x="1593" d="M37 723q0 311 223 531.5t533 220.5q324 0 543.5 -232.5t219.5 -552.5q0 -317 -215 -528t-520 -211q-150 0 -294 58.5t-253 162.5q-233 225 -237 551zM231 786q0 -184 62.5 -342.5t199 -266t320.5 -107.5q74 0 146.5 18t144.5 63.5t127 111t89 165.5t34 225 q0 164 -54.5 318.5t-171.5 257.5q-156 137 -368.5 137t-370.5 -148.5t-158 -431.5zM561 1612q0 39 30 67.5t68 28.5q41 0 70 -27.5t29 -66.5q0 -41 -29 -69.5t-70 -28.5t-69.5 27.5t-28.5 68.5zM838 1612q0 39 29.5 67.5t68.5 28.5q41 0 69.5 -27.5t28.5 -66.5 q0 -41 -28.5 -69.5t-69.5 -28.5t-69.5 27.5t-28.5 68.5z" />
<glyph unicode="&#xd7;" horiz-adv-x="1130" d="M109 921.5q0 14.5 24.5 40t44.5 25.5h2q14 0 66 -49l321 -324l330 330q47 45 59 47h2q14 0 40 -25.5t26 -43.5v-2q0 -14 -49 -66l-324 -324l327 -325q48 -49 48 -64q0 -16 -24.5 -41.5t-43.5 -25.5q-16 0 -34 18l-357 357l-325 -328q-49 -47 -64 -47q-16 0 -41.5 24.5 t-25.5 42.5q0 16 18 35l356 354l-320 320q-56 57 -56 71.5z" />
<glyph unicode="&#xd8;" horiz-adv-x="1593" d="M37 723q0 311 223 531.5t533 220.5q156 0 305 -64q27 55 43 81t22 30t27 4q74 0 74 -33q0 -6 -70 -133q168 -106 265 -286.5t97 -383.5q0 -317 -215 -528t-520 -211q-182 0 -354 86q-61 -113 -66 -117q-16 -10 -39 -10q-70 0 -69 27v2l82 151q-156 106 -246 275.5 t-92 357.5zM231 786q0 -156 51.5 -309t161.5 -260l590 1079q-129 70 -274 70q-213 0 -371 -148.5t-158 -431.5zM528 150q131 -80 285 -80q74 0 146.5 18t144.5 63.5t127 111t89 165.5t34 225q0 168 -56.5 322.5t-173.5 257.5z" />
<glyph unicode="&#xd9;" horiz-adv-x="1548" d="M35 1362q0 49 41 49q4 0 68.5 -2t138.5 -4h12q57 0 106.5 2t78 3t34.5 1q39 0 39 -53q0 -35 -32 -42t-95 -11q-66 -8 -66 -72v-641q0 -137 24 -230.5t101 -162.5q123 -113 369 -113q287 0 375 186q39 80 39 228v28q0 20 -1 63.5t-1 63.5v557q0 25 -4.5 42.5t-11.5 28.5 t-18 17.5t-26.5 10.5t-35 6t-42.5 4q-45 4 -45 45q0 45 39 45q6 0 29 -1t63.5 -3t88 -2t88.5 2t63.5 3t28.5 1q37 0 37 -53q0 -25 -14.5 -33t-35 -10t-40 -10.5t-34 -41t-14.5 -92.5q0 -4 -1 -10t-1 -10v-465q0 -16 1 -48t1 -48v-66q0 -143 -34.5 -258.5t-147.5 -195.5 q-145 -100 -387 -101q-139 0 -248.5 30t-171 68.5t-106.5 95t-60.5 88.5t-25.5 68q-27 92 -27 263q0 25 1 78t1 77v516q0 20 -6 31.5t-17.5 17t-26.5 7.5t-36 4q-55 6 -55 49zM522 1765q0 33 23.5 53.5t56.5 20.5q45 0 107 -47q305 -221 313 -233q8 -16 8 -27 q0 -18 -12 -28.5t-29 -10.5h-2q-12 0 -381 176q-8 2 -22.5 10.5t-27.5 18.5t-23.5 28.5t-10.5 38.5z" />
<glyph unicode="&#xda;" horiz-adv-x="1548" d="M35 1362q0 49 41 49q4 0 68.5 -2t138.5 -4h12q57 0 106.5 2t78 3t34.5 1q39 0 39 -53q0 -35 -32 -42t-95 -11q-66 -8 -66 -72v-641q0 -137 24 -230.5t101 -162.5q123 -113 369 -113q287 0 375 186q39 80 39 228v28q0 20 -1 63.5t-1 63.5v557q0 25 -4.5 42.5t-11.5 28.5 t-18 17.5t-26.5 10.5t-35 6t-42.5 4q-45 4 -45 45q0 45 39 45q6 0 29 -1t63.5 -3t88 -2t88.5 2t63.5 3t28.5 1q37 0 37 -53q0 -25 -14.5 -33t-35 -10t-40 -10.5t-34 -41t-14.5 -92.5q0 -4 -1 -10t-1 -10v-465q0 -16 1 -48t1 -48v-66q0 -143 -34.5 -258.5t-147.5 -195.5 q-145 -100 -387 -101q-139 0 -248.5 30t-171 68.5t-106.5 95t-60.5 88.5t-25.5 68q-27 92 -27 263q0 25 1 78t1 77v516q0 20 -6 31.5t-17.5 17t-26.5 7.5t-36 4q-55 6 -55 49zM647 1532q0 27 39 53l283 205q61 47 104 47q33 0 57.5 -21.5t24.5 -52.5q0 -27 -18.5 -49 t-28.5 -27.5l-37 -19.5q-371 -176 -383 -176q-16 0 -28.5 11.5t-12.5 29.5z" />
<glyph unicode="&#xdb;" horiz-adv-x="1548" d="M35 1362q0 49 41 49q4 0 68.5 -2t138.5 -4h12q57 0 106.5 2t78 3t34.5 1q39 0 39 -53q0 -35 -32 -42t-95 -11q-66 -8 -66 -72v-641q0 -137 24 -230.5t101 -162.5q123 -113 369 -113q287 0 375 186q39 80 39 228v28q0 20 -1 63.5t-1 63.5v557q0 25 -4.5 42.5t-11.5 28.5 t-18 17.5t-26.5 10.5t-35 6t-42.5 4q-45 4 -45 45q0 45 39 45q6 0 29 -1t63.5 -3t88 -2t88.5 2t63.5 3t28.5 1q37 0 37 -53q0 -25 -14.5 -33t-35 -10t-40 -10.5t-34 -41t-14.5 -92.5q0 -4 -1 -10t-1 -10v-465q0 -16 1 -48t1 -48v-66q0 -143 -34.5 -258.5t-147.5 -195.5 q-145 -100 -387 -101q-139 0 -248.5 30t-171 68.5t-106.5 95t-60.5 88.5t-25.5 68q-27 92 -27 263q0 25 1 78t1 77v516q0 20 -6 31.5t-17.5 17t-26.5 7.5t-36 4q-55 6 -55 49zM528 1520q0 12 23 40l154 191q37 49 77 49q25 0 52 -28q143 -174 167.5 -206t24.5 -44 q0 -10 -8 -20.5t-25 -10.5q-25 0 -53 29l-113 94q-31 25 -49 24q-27 0 -110.5 -73.5t-108.5 -73.5q-31 0 -31 29z" />
<glyph unicode="&#xdc;" horiz-adv-x="1548" d="M35 1362q0 49 41 49q4 0 68.5 -2t138.5 -4h12q57 0 106.5 2t78 3t34.5 1q39 0 39 -53q0 -35 -32 -42t-95 -11q-66 -8 -66 -72v-641q0 -137 24 -230.5t101 -162.5q123 -113 369 -113q287 0 375 186q39 80 39 228v28q0 20 -1 63.5t-1 63.5v557q0 25 -4.5 42.5t-11.5 28.5 t-18 17.5t-26.5 10.5t-35 6t-42.5 4q-45 4 -45 45q0 45 39 45q6 0 29 -1t63.5 -3t88 -2t88.5 2t63.5 3t28.5 1q37 0 37 -53q0 -25 -14.5 -33t-35 -10t-40 -10.5t-34 -41t-14.5 -92.5q0 -4 -1 -10t-1 -10v-465q0 -16 1 -48t1 -48v-66q0 -143 -34.5 -258.5t-147.5 -195.5 q-145 -100 -387 -101q-139 0 -248.5 30t-171 68.5t-106.5 95t-60.5 88.5t-25.5 68q-27 92 -27 263q0 25 1 78t1 77v516q0 20 -6 31.5t-17.5 17t-26.5 7.5t-36 4q-55 6 -55 49zM590 1587q0 39 29.5 67.5t68.5 28.5q41 0 69.5 -27.5t28.5 -66.5q0 -41 -28.5 -69.5t-69.5 -28.5 t-69.5 27.5t-28.5 68.5zM866 1587q0 39 30 67.5t69 28.5q41 0 69.5 -27.5t28.5 -66.5q0 -41 -28.5 -69.5t-69.5 -28.5t-70 27.5t-29 68.5z" />
<glyph unicode="&#xdd;" horiz-adv-x="1366" d="M23 1366q0 45 51 45q6 0 34.5 -1t80 -3t110.5 -2t109.5 2t79 3t34.5 1q37 0 37 -41q0 -31 -11 -42t-41 -13t-81 -6q-53 -6 -53 -47v-5q0 -14 39 -83l252 -435q16 -29 28 -28q4 0 17 12l228 313q79 111 104.5 155t25.5 73q0 33 -29.5 44t-64.5 8t-64.5 8t-29.5 46 q0 41 43 41q6 0 29.5 -1t64.5 -3t88 -2h6q66 2 122 4t60 2q29 0 43.5 -13.5t14.5 -27.5q0 -23 -43 -54.5t-64 -58.5l-297 -383q-158 -209 -185.5 -248.5t-27.5 -82.5v-400q0 -25 14.5 -33t64.5 -11t146 -7q45 -2 46 -49v-16q0 -39 -33 -39l-41 4q-41 2 -110.5 5t-137.5 3 q-70 0 -139.5 -3t-110.5 -5l-41 -4q-51 0 -51 57q0 27 11 36t47 12t102 5h6q18 2 26.5 4t17.5 12.5t9 28.5v424q0 25 -4 40.5t-14 31.5l-25 41l-377 604q-20 25 -59 29t-49 24q-8 13 -8 29zM530 1532q0 27 39 53l283 205q61 47 104 47q33 0 57.5 -21.5t24.5 -52.5 q0 -27 -18.5 -49t-28.5 -27.5l-37 -19.5q-371 -176 -383 -176q-16 0 -28.5 11.5t-12.5 29.5z" />
<glyph unicode="&#xdf;" horiz-adv-x="1083" d="M18 776q0 47 29 58q10 4 60.5 4t54.5 2q6 2 6 14v4q4 362 180 514q121 100 275 101q104 0 171.5 -63.5t67.5 -166.5q0 -72 -35.5 -135.5t-78.5 -101t-79 -89t-36 -100.5q0 -55 34.5 -99t123 -118t149.5 -139q127 -137 127 -262q0 -104 -73.5 -171t-180.5 -67 q-102 0 -175 38t-97 79q-12 23 -13 55v135q0 31 4 37q14 14 31 14q18 0 24.5 -11t5.5 -28.5t3 -44t16 -49.5q20 -33 73.5 -71.5t113 -38.5t101.5 35.5t42 93.5q0 55 -36 99t-136 128t-172 158q-82 82 -82 164q0 72 90 202.5t90 221.5q0 72 -43 122t-110 50q-23 0 -48.5 -9.5 t-62.5 -37t-66.5 -95t-41.5 -168.5q-10 -80 -11 -241v-21q0 -225 -1 -368.5t-1 -199.5v-71q0 -20 3 -30.5t18.5 -22.5t44.5 -14h12q27 -2 37 -4t15 -9.5t5 -23.5q0 -47 -22 -47l-27 4q-25 2 -67.5 5t-85.5 3t-87 -3t-71 -5l-25 -4q-25 0 -24 39q0 33 14.5 39t81.5 14 q25 2 30 33.5t5 93.5q4 102 4 512q0 14 -18.5 16t-90.5 2h-2q-43 0 -43 39z" />
<glyph unicode="&#xe0;" horiz-adv-x="866" d="M59 707q0 59 97.5 120.5t218.5 61.5q39 0 79 -8.5t90 -29t85 -69.5t43 -118q4 -49 4 -74v-404q0 -37 14.5 -58.5t27.5 -26.5t27 -5q37 0 57.5 34t33.5 34q18 0 18 -27q0 -47 -43 -104.5t-115 -57.5q-31 0 -60.5 13.5t-45 28t-27.5 28.5l-12 14q-2 0 -2 1t-2 1q-4 0 -7 -3 l-14.5 -15t-33.5 -27q-88 -57 -191 -57q-104 0 -168.5 66.5t-64.5 162.5v2q0 115 86 183q39 31 102 52t117.5 29.5t97.5 12.5l43 4q16 4 16 29v73q0 106 -49 164q-51 55 -119 56q-109 0 -176 -138q-16 -23 -45 -22q-31 0 -56.5 20.5t-25.5 53.5zM92 1360q0 33 22.5 54.5 t53.5 21.5h2q57 0 113 -86l184 -274q31 -46 31 -64q0 -16 -11.5 -28.5t-27.5 -12.5h-4q-12 0 -27.5 12t-81.5 79l-203 206q-51 51 -51 92zM219 211q0 -76 43 -113q29 -27 88 -26q45 0 86 19.5t57.5 35.5t26.5 29q12 16 12 47v49v84q0 37 -3 48t-17 11q-27 0 -64.5 -4 t-93 -22.5t-86.5 -46.5q-49 -41 -49 -111z" />
<glyph unicode="&#xe1;" horiz-adv-x="866" d="M59 707q0 59 97.5 120.5t218.5 61.5q39 0 79 -8.5t90 -29t85 -69.5t43 -118q4 -49 4 -74v-404q0 -37 14.5 -58.5t27.5 -26.5t27 -5q37 0 57.5 34t33.5 34q18 0 18 -27q0 -47 -43 -104.5t-115 -57.5q-31 0 -60.5 13.5t-45 28t-27.5 28.5l-12 14q-2 0 -2 1t-2 1q-4 0 -7 -3 l-14.5 -15t-33.5 -27q-88 -57 -191 -57q-104 0 -168.5 66.5t-64.5 162.5v2q0 115 86 183q39 31 102 52t117.5 29.5t97.5 12.5l43 4q16 4 16 29v73q0 106 -49 164q-51 55 -119 56q-109 0 -176 -138q-16 -23 -45 -22q-31 0 -56.5 20.5t-25.5 53.5zM219 211q0 -76 43 -113 q29 -27 88 -26q45 0 86 19.5t57.5 35.5t26.5 29q12 16 12 47v49v84q0 37 -3 48t-17 11q-27 0 -64.5 -4t-93 -22.5t-86.5 -46.5q-49 -41 -49 -111zM256 1012q0 14 9 30.5t57 86.5l149 221q55 86 113 86q31 0 53 -21.5t22 -54.5q0 -39 -49 -92q-266 -272 -284 -287 q-14 -10 -31 -10q-18 0 -28.5 12.5t-10.5 28.5z" />
<glyph unicode="&#xe2;" horiz-adv-x="866" d="M59 707q0 59 97.5 120.5t218.5 61.5q39 0 79 -8.5t90 -29t85 -69.5t43 -118q4 -49 4 -74v-404q0 -37 14.5 -58.5t27.5 -26.5t27 -5q37 0 57.5 34t33.5 34q18 0 18 -27q0 -47 -43 -104.5t-115 -57.5q-31 0 -60.5 13.5t-45 28t-27.5 28.5l-12 14q-2 0 -2 1t-2 1q-4 0 -7 -3 l-14.5 -15t-33.5 -27q-88 -57 -191 -57q-104 0 -168.5 66.5t-64.5 162.5v2q0 115 86 183q39 31 102 52t117.5 29.5t97.5 12.5l43 4q16 4 16 29v73q0 106 -49 164q-51 55 -119 56q-109 0 -176 -138q-16 -23 -45 -22q-31 0 -56.5 20.5t-25.5 53.5zM188 1001q0 12 50.5 159 t76.5 204q25 59 60 59q27 0 51.5 -42t53.5 -131l77 -224q6 -18 6 -22q0 -16 -10 -24.5t-21 -8.5q-25 0 -53 47l-58 103q-19 34 -26.5 42t-17.5 8q-12 0 -20.5 -9t-28.5 -44l-60 -104q-27 -43 -49 -43q-31 -1 -31 30zM219 211q0 -76 43 -113q29 -27 88 -26q45 0 86 19.5 t57.5 35.5t26.5 29q12 16 12 47v49v84q0 37 -3 48t-17 11q-27 0 -64.5 -4t-93 -22.5t-86.5 -46.5q-49 -41 -49 -111z" />
<glyph unicode="&#xe3;" horiz-adv-x="866" d="M59 707q0 59 97.5 120.5t218.5 61.5q39 0 79 -8.5t90 -29t85 -69.5t43 -118q4 -49 4 -74v-404q0 -37 14.5 -58.5t27.5 -26.5t27 -5q37 0 57.5 34t33.5 34q18 0 18 -27q0 -47 -43 -104.5t-115 -57.5q-31 0 -60.5 13.5t-45 28t-27.5 28.5l-12 14q-2 0 -2 1t-2 1q-4 0 -7 -3 l-14.5 -15t-33.5 -27q-88 -57 -191 -57q-104 0 -168.5 66.5t-64.5 162.5v2q0 115 86 183q39 31 102 52t117.5 29.5t97.5 12.5l43 4q16 4 16 29v73q0 106 -49 164q-51 55 -119 56q-109 0 -176 -138q-16 -23 -45 -22q-31 0 -56.5 20.5t-25.5 53.5zM66 1180q0 6 35.5 60 t56.5 75q47 47 102 47q47 0 114.5 -44t114.5 -44q41 0 76 23.5t55.5 47t28.5 23.5t23.5 -8t15.5 -19q0 -12 -40 -59t-75 -74q-57 -45 -118 -45q-55 0 -118 46t-101.5 46t-71.5 -26.5t-50.5 -53t-21.5 -26.5q-6 0 -16 11.5t-10 19.5zM219 211q0 -76 43 -113q29 -27 88 -26 q45 0 86 19.5t57.5 35.5t26.5 29q12 16 12 47v49v84q0 37 -3 48t-17 11q-27 0 -64.5 -4t-93 -22.5t-86.5 -46.5q-49 -41 -49 -111z" />
<glyph unicode="&#xe4;" horiz-adv-x="866" d="M59 707q0 59 97.5 120.5t218.5 61.5q39 0 79 -8.5t90 -29t85 -69.5t43 -118q4 -49 4 -74v-404q0 -37 14.5 -58.5t27.5 -26.5t27 -5q37 0 57.5 34t33.5 34q18 0 18 -27q0 -47 -43 -104.5t-115 -57.5q-31 0 -60.5 13.5t-45 28t-27.5 28.5l-12 14q-2 0 -2 1t-2 1q-4 0 -7 -3 l-14.5 -15t-33.5 -27q-88 -57 -191 -57q-104 0 -168.5 66.5t-64.5 162.5v2q0 115 86 183q39 31 102 52t117.5 29.5t97.5 12.5l43 4q16 4 16 29v73q0 106 -49 164q-51 55 -119 56q-109 0 -176 -138q-16 -23 -45 -22q-31 0 -56.5 20.5t-25.5 53.5zM139 1266q0 39 30 67.5 t69 28.5q41 0 69.5 -27.5t28.5 -66.5q0 -41 -28.5 -70t-69.5 -29t-70 28t-29 69zM219 211q0 -76 43 -113q29 -27 88 -26q45 0 86 19.5t57.5 35.5t26.5 29q12 16 12 47v49v84q0 37 -3 48t-17 11q-27 0 -64.5 -4t-93 -22.5t-86.5 -46.5q-49 -41 -49 -111zM416 1266 q0 39 29.5 67.5t68.5 28.5q41 0 69.5 -27.5t28.5 -66.5q0 -41 -28.5 -70t-69.5 -29t-69.5 28t-28.5 69z" />
<glyph unicode="&#xe5;" horiz-adv-x="866" d="M59 707q0 59 97.5 120.5t218.5 61.5q39 0 79 -8.5t90 -29t85 -69.5t43 -118q4 -49 4 -74v-404q0 -37 14.5 -58.5t27.5 -26.5t27 -5q37 0 57.5 34t33.5 34q18 0 18 -27q0 -47 -43 -104.5t-115 -57.5q-31 0 -60.5 13.5t-45 28t-27.5 28.5l-12 14q-2 0 -2 1t-2 1q-4 0 -7 -3 l-14.5 -15t-33.5 -27q-88 -57 -191 -57q-104 0 -168.5 66.5t-64.5 162.5v2q0 115 86 183q39 31 102 52t117.5 29.5t97.5 12.5l43 4q16 4 16 29v73q0 106 -49 164q-51 55 -119 56q-109 0 -176 -138q-16 -23 -45 -22q-31 0 -56.5 20.5t-25.5 53.5zM201 1151q0 74 51 127 t123 53q74 0 124 -53t50 -127q0 -76 -51.5 -128t-123 -52t-122.5 52t-51 128zM219 211q0 -76 43 -113q29 -27 88 -26q45 0 86 19.5t57.5 35.5t26.5 29q12 16 12 47v49v84q0 37 -3 48t-17 11q-27 0 -64.5 -4t-93 -22.5t-86.5 -46.5q-49 -41 -49 -111zM283 1153 q0 -41 27.5 -71.5t66.5 -30.5t65.5 30.5t26.5 69.5t-27.5 70.5t-66.5 31.5t-65.5 -29.5t-26.5 -70.5z" />
<glyph unicode="&#xe6;" horiz-adv-x="1320" d="M57 702q0 59 96.5 121t221.5 62q72 0 126 -18.5t77.5 -40t41 -40t25.5 -18.5t19 10q113 106 251 107q131 0 250 -93.5t119 -150.5v-2q-2 -39 -62.5 -66.5t-105.5 -35.5q-317 -106 -375.5 -128t-58.5 -34q0 -18 12.5 -58.5t41 -97.5t94 -99t155.5 -42q139 0 244 100 q23 29 47 29q31 0 31 -29q0 -16 -13 -35q-68 -88 -165 -135t-199 -47q-94 0 -168 38t-107 75l-34 37l-46 -39q-45 -39 -121.5 -78t-154.5 -39q-102 0 -167.5 66.5t-65.5 162.5v2q0 115 86 183q47 39 137 63.5t157 30.5l66 4q16 4 16 45v57q0 106 -49 164q-49 55 -119 55 q-27 0 -52 -9t-42.5 -22.5t-34 -31.5t-24.5 -31.5t-14 -27.5l-9 -15q-18 -23 -47 -22q-31 0 -55.5 20t-24.5 53zM217 207q0 -55 29.5 -98t99.5 -43q76 0 135 49q33 27 41 45t8 76v59q0 70 -3 83t-17 13h-4q-289 -20 -289 -184zM672 477q0 -14 10 -14q4 0 190.5 71.5 t194.5 75.5q16 8 16 25q0 29 -69.5 82t-145.5 53q-88 0 -142 -80t-54 -213z" />
<glyph unicode="&#xe7;" horiz-adv-x="780" d="M35 403q0 209 120.5 341.5t317.5 132.5q109 0 184.5 -46.5t75.5 -105.5q0 -35 -24.5 -56.5t-57.5 -21.5q-45 0 -114.5 61.5t-133.5 61.5q-94 0 -163.5 -93t-69.5 -222q0 -145 92 -253t232 -108q70 0 122 28t81.5 55.5t45.5 27.5q14 0 24.5 -10.5t10.5 -24.5 q0 -16 -12 -33q-55 -74 -142 -124t-196 -50h-6l-10 -26q-4 -10 -5 -13.5t-1 -5.5q0 -6 8 -6h6q76 0 124 -41t48 -115v-2q0 -61 -39 -107t-129 -46q-45 0 -100.5 10t-61.5 16q-8 6 -8 14.5t7 29t22 20.5l18 -4q18 -4 45 -8.5t43 -4.5q35 0 56.5 18.5t21.5 47.5q0 41 -41 71.5 t-104 34.5q-10 0 -11 7l19 49l26 69q-145 25 -233 142.5t-88 289.5z" />
<glyph unicode="&#xe8;" horiz-adv-x="837" d="M45 422q0 209 109.5 335t269.5 126q100 0 195.5 -56.5t156.5 -140.5q16 -20 17 -45v-2q0 -39 -60.5 -66.5t-105.5 -35.5q-317 -106 -377 -128t-60 -34q0 -18 12.5 -58.5t41 -97.5t94 -99t156.5 -42q139 0 243 100q29 29 47 29q33 0 33 -31q0 -16 -14 -33 q-66 -84 -161 -133t-202 -49q-53 0 -105 14.5t-105.5 48t-93.5 85t-65.5 132.5t-25.5 181zM66 1356q0 33 22.5 54.5t52.5 21.5h2q57 0 113 -86l184 -274q31 -46 31 -64q0 -16 -11 -28.5t-28 -12.5h-4q-12 0 -27.5 12t-81.5 79l-202 206q-51 51 -51 92zM182 477q0 -14 11 -14 q4 0 190 72.5t192 74.5q18 8 19 25q0 27 -69.5 81t-145.5 54q-90 0 -143.5 -79t-53.5 -214z" />
<glyph unicode="&#xe9;" horiz-adv-x="837" d="M45 422q0 209 109.5 335t269.5 126q100 0 195.5 -56.5t156.5 -140.5q16 -20 17 -45v-2q0 -39 -60.5 -66.5t-105.5 -35.5q-317 -106 -377 -128t-60 -34q0 -18 12.5 -58.5t41 -97.5t94 -99t156.5 -42q139 0 243 100q29 29 47 29q33 0 33 -31q0 -16 -14 -33 q-66 -84 -161 -133t-202 -49q-53 0 -105 14.5t-105.5 48t-93.5 85t-65.5 132.5t-25.5 181zM182 477q0 -14 11 -14q4 0 190 72.5t192 74.5q18 8 19 25q0 27 -69.5 81t-145.5 54q-90 0 -143.5 -79t-53.5 -214zM229 1008q0 14 9.5 30.5t56.5 86.5l149 221q55 86 113 86 q31 0 53.5 -21.5t22.5 -54.5q0 -39 -49 -92q-266 -272 -285 -287q-14 -10 -31 -10q-18 0 -28.5 12.5t-10.5 28.5z" />
<glyph unicode="&#xea;" horiz-adv-x="837" d="M45 422q0 209 109.5 335t269.5 126q100 0 195.5 -56.5t156.5 -140.5q16 -20 17 -45v-2q0 -39 -60.5 -66.5t-105.5 -35.5q-317 -106 -377 -128t-60 -34q0 -18 12.5 -58.5t41 -97.5t94 -99t156.5 -42q139 0 243 100q29 29 47 29q33 0 33 -31q0 -16 -14 -33 q-66 -84 -161 -133t-202 -49q-53 0 -105 14.5t-105.5 48t-93.5 85t-65.5 132.5t-25.5 181zM182 477q0 -14 11 -14q4 0 190 72.5t192 74.5q18 8 19 25q0 27 -69.5 81t-145.5 54q-90 0 -143.5 -79t-53.5 -214zM244 995q0 12 50 158.5t77 204.5q25 59 59 59q27 0 51.5 -42 t54.5 -131l76 -224q6 -18 6 -23q0 -16 -10 -24t-20 -8q-25 0 -53 47l-59 103q-19 34 -26.5 42t-17.5 8q-12 0 -20.5 -9t-28.5 -44l-59 -104q-27 -43 -50 -43q-30 -1 -30 30z" />
<glyph unicode="&#xeb;" horiz-adv-x="837" d="M45 422q0 209 109.5 335t269.5 126q100 0 195.5 -56.5t156.5 -140.5q16 -20 17 -45v-2q0 -39 -60.5 -66.5t-105.5 -35.5q-317 -106 -377 -128t-60 -34q0 -18 12.5 -58.5t41 -97.5t94 -99t156.5 -42q139 0 243 100q29 29 47 29q33 0 33 -31q0 -16 -14 -33 q-66 -84 -161 -133t-202 -49q-53 0 -105 14.5t-105.5 48t-93.5 85t-65.5 132.5t-25.5 181zM182 477q0 -14 11 -14q4 0 190 72.5t192 74.5q18 8 19 25q0 27 -69.5 81t-145.5 54q-90 0 -143.5 -79t-53.5 -214zM195 1266q0 39 29.5 67.5t68.5 28.5q41 0 69.5 -27.5t28.5 -66.5 q0 -41 -28.5 -70t-69.5 -29t-69.5 28t-28.5 69zM471 1266q0 39 29.5 67.5t68.5 28.5q41 0 70 -27.5t29 -66.5q0 -41 -29 -70t-70 -29t-69.5 28t-28.5 69z" />
<glyph unicode="&#xec;" horiz-adv-x="497" d="M31 1374q0 33 22.5 54.5t52.5 21.5h3q57 0 112 -86l185 -273q31 -46 30 -65q0 -16 -11 -28.5t-28 -12.5h-4q-12 0 -27.5 12.5t-80.5 78.5l-203 206q-51 51 -51 92zM176 753.5q0 16.5 19.5 28t35.5 15.5q221 106 226 106h2q29 0 28 -33l-4 -65q-2 -66 -5 -177.5t-3 -221.5 v-68q0 -186 6 -222t41 -40q33 -4 53.5 -7t29.5 -11.5t9 -24.5q0 -45 -24 -45l-27 4q-27 2 -72 5t-90 3t-90 -3t-71 -5l-27 -4q-31 0 -31 35q0 33 12.5 39t88.5 16q35 6 45 23.5t10 50.5v96q0 104 1 193t1 141v61q0 16 -7 24.5t-38 21.5l-94 38q-25 10 -25 26.5z" />
<glyph unicode="&#xed;" horiz-adv-x="497" d="M31 753.5q0 16.5 19.5 28t35.5 15.5q221 106 225 106h2q29 0 29 -33l-2 -65q-4 -66 -7 -177.5t-3 -221.5v-68q0 -186 6 -222t41 -40q33 -4 53.5 -7t29.5 -11.5t9 -24.5q0 -45 -25 -45l-26 4q-27 2 -72 5t-90 3t-90 -3t-72 -5l-26 -4q-31 0 -31 35q0 33 12 39t88 16 q35 6 45.5 23.5t10.5 50.5v96v193q0 89 1 140.5t1 61.5q0 16 -7.5 24.5t-38 21.5t-94.5 38q-24 10 -24 26.5zM49 1026q0 14 9.5 30.5t56.5 87.5l149 220q55 86 113 86q31 0 53.5 -21.5t22.5 -54.5q0 -39 -50 -92q-266 -272 -284 -287q-14 -10 -31 -10q-18 0 -28.5 12.5 t-10.5 28.5z" />
<glyph unicode="&#xee;" horiz-adv-x="497" d="M31 753.5q0 16.5 19.5 28t35.5 15.5q221 106 225 106h2q29 0 29 -33l-2 -65q-4 -66 -7 -177.5t-3 -221.5v-68q0 -186 6 -222t41 -40q33 -4 53.5 -7t29.5 -11.5t9 -24.5q0 -45 -25 -45l-26 4q-27 2 -72 5t-90 3t-90 -3t-72 -5l-26 -4q-31 0 -31 35q0 33 12 39t88 16 q35 6 45.5 23.5t10.5 50.5v96v193q0 89 1 140.5t1 61.5q0 16 -7.5 24.5t-38 21.5t-94.5 38q-24 10 -24 26.5zM55 1016q0 12 50.5 158.5t76.5 203.5q25 59 60 60q27 0 51 -42t54 -131l77 -225q6 -18 6 -22q0 -16 -10 -24.5t-21 -8.5q-25 0 -53 47l-58 104q-19 34 -26.5 42 t-17.5 8q-12 0 -20.5 -9.5t-28.5 -43.5l-60 -105q-27 -43 -49 -43q-31 0 -31 31z" />
<glyph unicode="&#xef;" horiz-adv-x="497" d="M-10 1266q0 39 29.5 67.5t68.5 28.5q41 0 69.5 -27.5t28.5 -66.5q0 -41 -28.5 -70t-69.5 -29t-69.5 28t-28.5 69zM31 753.5q0 16.5 19.5 28t35.5 15.5q221 106 225 106h2q29 0 29 -33l-2 -65q-4 -66 -7 -177.5t-3 -221.5v-68q0 -186 6 -222t41 -40q33 -4 53.5 -7 t29.5 -11.5t9 -24.5q0 -45 -25 -45l-26 4q-27 2 -72 5t-90 3t-90 -3t-72 -5l-26 -4q-31 0 -31 35q0 33 12 39t88 16q35 6 45.5 23.5t10.5 50.5v96v193q0 89 1 140.5t1 61.5q0 16 -7.5 24.5t-38 21.5t-94.5 38q-24 10 -24 26.5zM266 1266q0 39 30 67.5t69 28.5 q41 0 69.5 -27.5t28.5 -66.5q0 -41 -28.5 -70t-69.5 -29t-70 28t-29 69z" />
<glyph unicode="&#xf1;" horiz-adv-x="1021" d="M23 25q0 29 12 35t67 14q35 6 44.5 21.5t9.5 47.5v490q0 35 -10.5 48t-82.5 67q-12 12 -12 20v2q0 10 25.5 25.5t169.5 91.5q12 8 20 8q25 0 25 -31v-80v-6l-2 -6q0 -8 6 -8h2l22 18l55 42t87 43.5t117 19.5h4q41 0 82 -11.5t89 -40t79.5 -91t39.5 -152.5q4 -35 5 -105 v-38q0 -31 -1.5 -111t-1.5 -205v-4q0 -20 5.5 -32.5t17.5 -17.5t30.5 -7t45.5 -6q29 -4 28 -37q0 -41 -30 -41q-6 0 -27.5 3t-60.5 6t-84 3q-41 0 -81 -3t-63 -5l-24 -4q-29 0 -29 41q0 18 9.5 25t33 11.5t64.5 10.5q33 4 32 49v317q0 156 -26 222q-29 68 -90.5 95 t-114.5 27q-80 0 -141.5 -48t-69.5 -85q-2 -8 -2 -26v-486v-6q0 -51 45 -57q43 -6 67.5 -10.5t34 -13.5t9.5 -31q0 -37 -27 -37l-29 4q-27 4 -71.5 7t-89.5 3q-43 0 -86.5 -3t-67.5 -5l-27 -4q-32 0 -32 37zM188 1180q0 6 36 60t57 75q47 47 102 47q47 0 114.5 -44 t114.5 -44q41 0 76 23.5t55.5 47t28.5 23.5t23.5 -8t15.5 -19q0 -12 -40 -59t-75 -74q-57 -45 -118 -45q-55 0 -118 46t-102 46t-71.5 -26.5t-50 -53t-21.5 -26.5q-6 0 -16.5 11.5t-10.5 19.5z" />
<glyph unicode="&#xf2;" horiz-adv-x="956" d="M43 418q0 207 131 337t311 130q184 0 306 -131t122 -336q0 -211 -127 -334t-309 -123q-193 0 -313.5 132t-120.5 325zM113 1356q0 33 22.5 54.5t52.5 21.5h2q57 0 113 -86l184 -274q31 -46 31 -64q0 -16 -11 -28.5t-28 -12.5h-4q-12 0 -27.5 12t-80.5 79l-203 206 q-51 51 -51 92zM203 428q0 -162 77.5 -264.5t202.5 -102.5q127 0 209 103.5t82 245.5q0 160 -91 269t-212 109q-100 0 -184 -88t-84 -272z" />
<glyph unicode="&#xf3;" horiz-adv-x="956" d="M43 418q0 207 131 337t311 130q184 0 306 -131t122 -336q0 -211 -127 -334t-309 -123q-193 0 -313.5 132t-120.5 325zM203 428q0 -162 77.5 -264.5t202.5 -102.5q127 0 209 103.5t82 245.5q0 160 -91 269t-212 109q-100 0 -184 -88t-84 -272zM276 1008q0 14 9.5 30.5 t56.5 86.5l150 221q55 86 112 86q31 0 53.5 -21.5t22.5 -54.5q0 -39 -49 -92q-266 -272 -285 -287q-14 -10 -31 -10q-18 0 -28.5 12.5t-10.5 28.5z" />
<glyph unicode="&#xf4;" horiz-adv-x="956" d="M43 418q0 207 131 337t311 130q184 0 306 -131t122 -336q0 -211 -127 -334t-309 -123q-193 0 -313.5 132t-120.5 325zM203 428q0 -162 77.5 -264.5t202.5 -102.5q127 0 209 103.5t82 245.5q0 160 -91 269t-212 109q-100 0 -184 -88t-84 -272zM291 997q0 12 50 159t77 204 q25 59 59 59q27 0 51.5 -42t54.5 -131l76 -224q6 -18 7 -23q0 -16 -10.5 -24t-20.5 -8q-25 0 -53 47l-59 103q-19 34 -26.5 42t-17.5 8q-12 0 -20 -9t-29 -44l-59 -104q-27 -43 -49 -43q-31 -1 -31 30z" />
<glyph unicode="&#xf5;" horiz-adv-x="956" d="M43 418q0 207 131 337t311 130q184 0 306 -131t122 -336q0 -211 -127 -334t-309 -123q-193 0 -313.5 132t-120.5 325zM164 1180q0 6 36 60t56 75q47 47 102 47q47 0 115 -44t115 -44q41 0 75.5 23.5t55 47t29 23.5t23.5 -8t15 -19q0 -12 -39.5 -59t-74.5 -74 q-57 -45 -119 -45q-55 0 -117.5 46t-101.5 46t-72 -26.5t-50 -53t-22 -26.5q-6 0 -16 11.5t-10 19.5zM203 428q0 -162 77.5 -264.5t202.5 -102.5q127 0 209 103.5t82 245.5q0 160 -91 269t-212 109q-100 0 -184 -88t-84 -272z" />
<glyph unicode="&#xf6;" horiz-adv-x="956" d="M43 418q0 207 131 337t311 130q184 0 306 -131t122 -336q0 -211 -127 -334t-309 -123q-193 0 -313.5 132t-120.5 325zM203 428q0 -162 77.5 -264.5t202.5 -102.5q127 0 209 103.5t82 245.5q0 160 -91 269t-212 109q-100 0 -184 -88t-84 -272zM244 1266q0 39 29.5 67.5 t68.5 28.5q41 0 69.5 -27.5t28.5 -66.5q0 -41 -28.5 -70t-69.5 -29t-69.5 28t-28.5 69zM520 1266q0 39 30 67.5t68 28.5q41 0 70 -27.5t29 -66.5q0 -41 -29 -70t-69.5 -29t-69.5 28t-29 69z" />
<glyph unicode="&#xf7;" horiz-adv-x="1435" d="M109 518v27q0 45 47 45h1130q41 0 41 -39v-29q0 -49 -53 -49h-1118q-27 0 -37 9t-10 36zM584 819q0 45 32.5 76t77.5 31t76 -31t31 -74q0 -45 -32 -75.5t-77 -30.5t-76.5 29.5t-31.5 74.5zM598 244q0 45 30.5 74.5t76 29.5t77 -30.5t31.5 -75.5t-30.5 -75t-75.5 -30 q-43 0 -76 31t-33 76z" />
<glyph unicode="&#xf8;" horiz-adv-x="956" d="M43 418q0 207 131 337t311 130q84 0 174 -37l29 55q10 20 19.5 28.5t21.5 8.5q74 0 74 -35q0 -10 -58 -110q82 -63 125 -165t43 -212q0 -211 -127 -334t-309 -123q-92 0 -178 37l-17.5 -32.5t-17.5 -24t-22 -9.5q-72 0 -72 27q0 6 45 88q-78 59 -125 156.5t-47 214.5z M203 428q0 -162 78 -262l323 582q-63 41 -133 40q-100 0 -184 -88t-84 -272zM354 96q59 -35 129 -35q127 0 209 103.5t82 245.5q0 158 -92 270z" />
<glyph unicode="&#xf9;" horiz-adv-x="1034" d="M14 815v6q0 27 23 29q205 12 213 12q20 0 20 -24v-420q0 -137 37 -211q29 -55 85.5 -96t131.5 -41q100 0 174 73q35 39 35 62v504q0 20 -6 32.5t-21.5 18.5t-42 11t-65.5 11q-31 6 -31 33q0 31 29 35q66 2 119 4t73.5 3t35.5 1h24q31 0 31 -41v-641q0 -16 17 -24.5 t85 -36.5q16 -6 16 -24.5t-4 -26t-18 -12.5t-33.5 -9t-60.5 -20.5t-88 -42.5q-12 -8 -23 -9q-29 0 -29 41v47q0 8 -6 9l-37 -27q-37 -25 -104.5 -51.5t-142.5 -26.5q-125 0 -210 79t-104 218q-6 61 -6 125q0 37 1 177t1 153q0 37 -55 57q-10 4 -30.5 9t-27 11.5t-6.5 22.5z M141 1356q0 33 22.5 54.5t53.5 21.5h2q57 0 113 -86l184 -274q31 -46 31 -64q0 -16 -11.5 -28.5t-27.5 -12.5h-4q-12 0 -27.5 12t-81.5 79l-202 206q-52 51 -52 92z" />
<glyph unicode="&#xfa;" horiz-adv-x="1034" d="M14 815v6q0 27 23 29q205 12 213 12q20 0 20 -24v-420q0 -137 37 -211q29 -55 85.5 -96t131.5 -41q100 0 174 73q35 39 35 62v504q0 20 -6 32.5t-21.5 18.5t-42 11t-65.5 11q-31 6 -31 33q0 31 29 35q66 2 119 4t73.5 3t35.5 1h24q31 0 31 -41v-641q0 -16 17 -24.5 t85 -36.5q16 -6 16 -24.5t-4 -26t-18 -12.5t-33.5 -9t-60.5 -20.5t-88 -42.5q-12 -8 -23 -9q-29 0 -29 41v47q0 8 -6 9l-37 -27q-37 -25 -104.5 -51.5t-142.5 -26.5q-125 0 -210 79t-104 218q-6 61 -6 125q0 37 1 177t1 153q0 37 -55 57q-10 4 -30.5 9t-27 11.5t-6.5 22.5z M305 1008q0 14 9.5 30.5t56.5 86.5l149 221q55 86 113 86q31 0 53.5 -21.5t22.5 -54.5q0 -39 -50 -92q-266 -272 -284 -287q-14 -10 -31 -10q-18 0 -28.5 12.5t-10.5 28.5z" />
<glyph unicode="&#xfb;" horiz-adv-x="1034" d="M14 815v6q0 27 23 29q205 12 213 12q20 0 20 -24v-420q0 -137 37 -211q29 -55 85.5 -96t131.5 -41q100 0 174 73q35 39 35 62v504q0 20 -6 32.5t-21.5 18.5t-42 11t-65.5 11q-31 6 -31 33q0 31 29 35q66 2 119 4t73.5 3t35.5 1h24q31 0 31 -41v-641q0 -16 17 -24.5 t85 -36.5q16 -6 16 -24.5t-4 -26t-18 -12.5t-33.5 -9t-60.5 -20.5t-88 -42.5q-12 -8 -23 -9q-29 0 -29 41v47q0 8 -6 9l-37 -27q-37 -25 -104.5 -51.5t-142.5 -26.5q-125 0 -210 79t-104 218q-6 61 -6 125q0 37 1 177t1 153q0 37 -55 57q-10 4 -30.5 9t-27 11.5t-6.5 22.5z M319 995q0 12 50.5 158.5t76.5 204.5q25 59 60 59q27 0 51.5 -42t53.5 -131l77 -224q6 -18 6 -23q0 -16 -10 -24t-20 -8q-25 0 -54 47l-58 103q-19 34 -26.5 42t-17.5 8q-12 0 -20.5 -9t-28.5 -44l-60 -104q-27 -43 -49 -43q-31 -1 -31 30z" />
<glyph unicode="&#xfc;" horiz-adv-x="1034" d="M14 815v6q0 27 23 29q205 12 213 12q20 0 20 -24v-420q0 -137 37 -211q29 -55 85.5 -96t131.5 -41q100 0 174 73q35 39 35 62v504q0 20 -6 32.5t-21.5 18.5t-42 11t-65.5 11q-31 6 -31 33q0 31 29 35q66 2 119 4t73.5 3t35.5 1h24q31 0 31 -41v-641q0 -16 17 -24.5 t85 -36.5q16 -6 16 -24.5t-4 -26t-18 -12.5t-33.5 -9t-60.5 -20.5t-88 -42.5q-12 -8 -23 -9q-29 0 -29 41v47q0 8 -6 9l-37 -27q-37 -25 -104.5 -51.5t-142.5 -26.5q-125 0 -210 79t-104 218q-6 61 -6 125q0 37 1 177t1 153q0 37 -55 57q-10 4 -30.5 9t-27 11.5t-6.5 22.5z M270 1266q0 39 30 67.5t69 28.5q41 0 69.5 -27.5t28.5 -66.5q0 -41 -28.5 -70t-69.5 -29t-70 28t-29 69zM547 1266q0 39 29.5 67.5t68.5 28.5q41 0 69.5 -27.5t28.5 -66.5q0 -41 -28.5 -70t-69.5 -29t-69.5 28t-28.5 69z" />
<glyph unicode="&#xfd;" horiz-adv-x="958" d="M8 815q0 35 29 35q4 0 24.5 -1t56.5 -3t79 -2t78.5 2t57 3t25.5 1q27 0 27 -33q0 -16 -3 -25.5t-11.5 -13.5t-23.5 -5t-38 -3q-31 -4 -30 -29q0 -20 65.5 -175.5t157.5 -327.5q0 -12 14 -13q8 0 16 15q2 4 5 6q168 401 168 481q0 23 -10.5 33t-33 11t-55.5 3 q-39 4 -39 39q0 37 39 37q4 0 24.5 -1t56.5 -3t79 -2h2q41 0 77 2t55.5 3t23.5 1q25 0 24 -41q0 -23 -11 -28t-69 -11q-14 -2 -19 -4t-15.5 -24.5t-19.5 -52.5t-40 -109l-67 -172q-199 -483 -367 -738q-82 -127 -152 -127q-33 0 -56 21.5t-23 52.5q0 37 26.5 63.5t76.5 58.5 t77 56q43 39 90 117t47 119q0 53 -227 508q-102 195 -112.5 209t-26 19t-25.5 5t-18.5 10t-8.5 33zM276 1008q0 14 9.5 30.5t56.5 86.5l150 221q55 86 112 86q31 0 53.5 -21.5t22.5 -54.5q0 -39 -49 -92q-266 -272 -285 -287q-14 -10 -31 -10q-18 0 -28.5 12.5t-10.5 28.5z " />
<glyph unicode="&#xff;" horiz-adv-x="958" d="M8 815q0 35 29 35q4 0 24.5 -1t56.5 -3t79 -2t78.5 2t57 3t25.5 1q27 0 27 -33q0 -16 -3 -25.5t-11.5 -13.5t-23.5 -5t-38 -3q-31 -4 -30 -29q0 -20 65.5 -175.5t157.5 -327.5q0 -12 14 -13q8 0 16 15q2 4 5 6q168 401 168 481q0 23 -10.5 33t-33 11t-55.5 3 q-39 4 -39 39q0 37 39 37q4 0 24.5 -1t56.5 -3t79 -2h2q41 0 77 2t55.5 3t23.5 1q25 0 24 -41q0 -23 -11 -28t-69 -11q-14 -2 -19 -4t-15.5 -24.5t-19.5 -52.5t-40 -109l-67 -172q-199 -483 -367 -738q-82 -127 -152 -127q-33 0 -56 21.5t-23 52.5q0 37 26.5 63.5t76.5 58.5 t77 56q43 39 90 117t47 119q0 53 -227 508q-102 195 -112.5 209t-26 19t-25.5 5t-18.5 10t-8.5 33zM244 1266q0 39 29.5 67.5t68.5 28.5q41 0 69.5 -27.5t28.5 -66.5q0 -41 -28.5 -70t-69.5 -29t-69.5 28t-28.5 69zM520 1266q0 39 30 67.5t68 28.5q41 0 70 -27.5t29 -66.5 q0 -41 -29 -70t-69.5 -29t-69.5 28t-29 69z" />
<glyph unicode="&#x102;" horiz-adv-x="1681" d="M18 31q0 20 6.5 31.5t17.5 16.5t28.5 8t40.5 5q49 6 71.5 25.5t44.5 72.5q152 338 314 656l265 503q36 67 52 81q23 16 49 16q55 0 86 -78l295 -680q223 -543 228 -549q27 -41 87 -49t66 -31q4 -16 4 -26q0 -45 -41 -45l-35 4q-33 2 -89 5t-111 3q-66 0 -120 -3t-86 -6 t-38 -3q-41 0 -41 35q0 25 5 36t18.5 17t37 9t60.5 7q41 8 41 39t-49 183.5t-105 279.5q-8 20 -37 20h-481q-33 0 -47 -24q-70 -129 -124 -268.5t-54 -174.5q0 -20 8 -32.5t24.5 -17.5t40.5 -8l56 -7q45 -4 45 -49t-45 -45q-6 0 -35 3t-80 6t-110 3q-53 0 -106.5 -3 t-84.5 -5l-31 -4q-41 0 -41 43zM608 1739q0 14 15.5 29.5t33.5 15.5q6 0 42 -35t92.5 -69.5t116 -34.5t116.5 34.5t92 69.5t41 35q16 0 33.5 -15.5t17.5 -29.5q0 -10 -35.5 -62.5t-109.5 -109t-152 -56.5h-8q-78 0 -150.5 56.5t-108.5 109t-36 62.5zM610 729q0 -8 13 -8h419 q18 0 19 14q0 16 -79 200.5t-101 221.5q-8 14 -23 14q-18 0 -39 -34q-209 -392 -209 -408z" />
<glyph unicode="&#x103;" horiz-adv-x="866" d="M59 707q0 59 97.5 120.5t218.5 61.5q39 0 79 -8.5t90 -29t85 -69.5t43 -118q4 -49 4 -74v-404q0 -37 14.5 -58.5t27.5 -26.5t27 -5q37 0 57.5 34t33.5 34q18 0 18 -27q0 -47 -43 -104.5t-115 -57.5q-31 0 -60.5 13.5t-45 28t-27.5 28.5l-12 14q-2 0 -2 1t-2 1q-4 0 -7 -3 l-14.5 -15t-33.5 -27q-88 -57 -191 -57q-104 0 -168.5 66.5t-64.5 162.5v2q0 115 86 183q39 31 102 52t117.5 29.5t97.5 12.5l43 4q16 4 16 29v73q0 106 -49 164q-51 55 -119 56q-109 0 -176 -138q-16 -23 -45 -22q-31 0 -56.5 20.5t-25.5 53.5zM127 1274v6q0 20 45 20 q14 0 20.5 -8t8.5 -22.5t12 -40t31 -51.5q55 -70 123 -70h2q35 0 65.5 16.5t53 43t37 49t24.5 45.5l12 22q10 14 25 14q37 0 37 -14q0 -12 -13.5 -57t-41 -105.5t-84 -106.5t-126.5 -46q-180 0 -231 305zM219 211q0 -76 43 -113q29 -27 88 -26q45 0 86 19.5t57.5 35.5 t26.5 29q12 16 12 47v49v84q0 37 -3 48t-17 11q-27 0 -64.5 -4t-93 -22.5t-86.5 -46.5q-49 -41 -49 -111z" />
<glyph unicode="&#x106;" horiz-adv-x="1433" d="M39 686q0 152 62.5 291t164.5 240q219 209 522 208h3q109 0 201.5 -26.5t144 -54t55.5 -27.5q16 0 27.5 33.5t31.5 40.5q4 0 12.5 1t10.5 1q23 0 26 -25l15 -104q12 -104 26.5 -213t14.5 -117q0 -35 -41 -35q-20 0 -30.5 3t-15.5 14.5t-7 30t-7 48.5q-12 82 -53 135 q-70 88 -177 144.5t-241 56.5q-221 0 -384.5 -167t-163.5 -439q0 -283 167.5 -476.5t407.5 -193.5q180 0 329.5 110.5t205.5 293.5q8 27 30 26q33 0 33 -22l-51 -334q-8 -33 -45 -33h-2h-58q-31 0 -50 -11t-46 -32q-176 -102 -379 -102q-143 0 -279.5 55t-238.5 156 q-104 100 -162.5 239.5t-58.5 284.5zM567 1532q0 27 39 53l283 205q61 47 104 47q33 0 57.5 -21.5t24.5 -52.5q0 -27 -18.5 -49t-28.5 -27.5l-37 -19.5q-371 -176 -383 -176q-16 0 -28.5 11.5t-12.5 29.5z" />
<glyph unicode="&#x107;" horiz-adv-x="780" d="M35 403q0 209 120.5 341.5t317.5 132.5q109 0 184.5 -46.5t75.5 -105.5q0 -35 -24.5 -56.5t-57.5 -21.5q-45 0 -114.5 61.5t-133.5 61.5q-94 0 -163.5 -93t-69.5 -222q0 -145 92 -253t232 -108q70 0 122 28t81.5 55.5t45.5 27.5q14 0 24.5 -10.5t10.5 -24.5 q0 -16 -12 -33q-55 -74 -142 -124t-196 -50q-174 0 -283.5 125t-109.5 315zM207 1008q0 14 9 30.5t56 86.5l150 221q55 86 113 86q31 0 53 -21.5t22 -54.5q0 -39 -49 -92q-266 -272 -285 -287q-14 -10 -30 -10q-18 0 -28.5 12.5t-10.5 28.5z" />
<glyph unicode="&#x108;" horiz-adv-x="1433" d="M39 686q0 152 62.5 291t164.5 240q219 209 522 208h3q109 0 201.5 -26.5t144 -54t55.5 -27.5q16 0 27.5 33.5t31.5 40.5q4 0 12.5 1t10.5 1q23 0 26 -25l15 -104q12 -104 26.5 -213t14.5 -117q0 -35 -41 -35q-20 0 -30.5 3t-15.5 14.5t-7 30t-7 48.5q-12 82 -53 135 q-70 88 -177 144.5t-241 56.5q-221 0 -384.5 -167t-163.5 -439q0 -283 167.5 -476.5t407.5 -193.5q180 0 329.5 110.5t205.5 293.5q8 27 30 26q33 0 33 -22l-51 -334q-8 -33 -45 -33h-2h-58q-31 0 -50 -11t-46 -32q-176 -102 -379 -102q-143 0 -279.5 55t-238.5 156 q-104 100 -162.5 239.5t-58.5 284.5zM541 1520q0 12 22 40l154 191q37 49 78 49q25 0 51 -28q143 -174 167.5 -206t24.5 -44q0 -10 -8 -20.5t-24 -10.5q-25 0 -54 29l-112 94q-31 25 -49 24q-27 0 -111 -73.5t-109 -73.5q-30 0 -30 29z" />
<glyph unicode="&#x109;" horiz-adv-x="780" d="M35 403q0 209 120.5 341.5t317.5 132.5q109 0 184.5 -46.5t75.5 -105.5q0 -35 -24.5 -56.5t-57.5 -21.5q-45 0 -114.5 61.5t-133.5 61.5q-94 0 -163.5 -93t-69.5 -222q0 -145 92 -253t232 -108q70 0 122 28t81.5 55.5t45.5 27.5q14 0 24.5 -10.5t10.5 -24.5 q0 -16 -12 -33q-55 -74 -142 -124t-196 -50q-174 0 -283.5 125t-109.5 315zM221 995q0 12 50.5 158.5t76.5 204.5q25 59 60 59q27 0 51 -42t54 -131l77 -224q6 -18 6 -23q0 -16 -10.5 -24t-20.5 -8q-25 0 -53 47l-58 103q-19 34 -26.5 42t-17.5 8q-12 0 -20.5 -9t-29.5 -44 l-59 -104q-27 -43 -49 -43q-31 -1 -31 30z" />
<glyph unicode="&#x10a;" horiz-adv-x="1433" d="M39 686q0 152 62.5 291t164.5 240q219 209 522 208h3q109 0 201.5 -26.5t144 -54t55.5 -27.5q16 0 27.5 33.5t31.5 40.5q4 0 12.5 1t10.5 1q23 0 26 -25l15 -104q12 -104 26.5 -213t14.5 -117q0 -35 -41 -35q-20 0 -30.5 3t-15.5 14.5t-7 30t-7 48.5q-12 82 -53 135 q-70 88 -177 144.5t-241 56.5q-221 0 -384.5 -167t-163.5 -439q0 -283 167.5 -476.5t407.5 -193.5q180 0 329.5 110.5t205.5 293.5q8 27 30 26q33 0 33 -22l-51 -334q-8 -33 -45 -33h-2h-58q-31 0 -50 -11t-46 -32q-176 -102 -379 -102q-143 0 -279.5 55t-238.5 156 q-104 100 -162.5 239.5t-58.5 284.5zM672 1667q0 49 35.5 83t83.5 34q49 0 83.5 -34t34.5 -81t-35.5 -81t-82.5 -34q-49 0 -84 33t-35 80z" />
<glyph unicode="&#x10b;" horiz-adv-x="780" d="M35 403q0 209 120.5 341.5t317.5 132.5q109 0 184.5 -46.5t75.5 -105.5q0 -35 -24.5 -56.5t-57.5 -21.5q-45 0 -114.5 61.5t-133.5 61.5q-94 0 -163.5 -93t-69.5 -222q0 -145 92 -253t232 -108q70 0 122 28t81.5 55.5t45.5 27.5q14 0 24.5 -10.5t10.5 -24.5 q0 -16 -12 -33q-55 -74 -142 -124t-196 -50q-174 0 -283.5 125t-109.5 315zM328 1079q0 49 35.5 83t82.5 34q49 0 84 -34t35 -81t-35.5 -80.5t-83.5 -33.5q-49 0 -83.5 32.5t-34.5 79.5z" />
<glyph unicode="&#x10c;" horiz-adv-x="1433" d="M39 686q0 152 62.5 291t164.5 240q219 209 522 208h3q109 0 201.5 -26.5t144 -54t55.5 -27.5q16 0 27.5 33.5t31.5 40.5q4 0 12.5 1t10.5 1q23 0 26 -25l15 -104q12 -104 26.5 -213t14.5 -117q0 -35 -41 -35q-20 0 -30.5 3t-15.5 14.5t-7 30t-7 48.5q-12 82 -53 135 q-70 88 -177 144.5t-241 56.5q-221 0 -384.5 -167t-163.5 -439q0 -283 167.5 -476.5t407.5 -193.5q180 0 329.5 110.5t205.5 293.5q8 27 30 26q33 0 33 -22l-51 -334q-8 -33 -45 -33h-2h-58q-31 0 -50 -11t-46 -32q-176 -102 -379 -102q-143 0 -279.5 55t-238.5 156 q-104 100 -162.5 239.5t-58.5 284.5zM549 1769q0 10 8 20.5t25 10.5q25 0 53 -28l84 -73q31 -26 47 -36t31 -10q27 0 110.5 73.5t108.5 73.5q12 0 21.5 -8t9.5 -20.5t-22 -39.5l-155 -192q-37 -49 -77 -49q-25 0 -52 29l-164 202q-28 35 -28 47z" />
<glyph unicode="&#x10d;" horiz-adv-x="780" d="M35 403q0 209 120.5 341.5t317.5 132.5q109 0 184.5 -46.5t75.5 -105.5q0 -35 -24.5 -56.5t-57.5 -21.5q-45 0 -114.5 61.5t-133.5 61.5q-94 0 -163.5 -93t-69.5 -222q0 -145 92 -253t232 -108q70 0 122 28t81.5 55.5t45.5 27.5q14 0 24.5 -10.5t10.5 -24.5 q0 -16 -12 -33q-55 -74 -142 -124t-196 -50q-174 0 -283.5 125t-109.5 315zM258 1384q0 16 10.5 24.5t20.5 8.5q25 0 53 -47l48 -83q34 -58 34 -60q8 -10 20.5 -10t20.5 9t29 44l59 102q27 45 49 45q31 0 31 -31q0 -12 -51.5 -159.5t-75.5 -202.5q-25 -59 -60 -59 q-27 0 -51 42t-54 131l-77 224q-6 18 -6 22z" />
<glyph unicode="&#x10e;" horiz-adv-x="1452" d="M20 57q0 25 15.5 34t49.5 11t87 4q33 2 44 19.5t11 54.5v1037q0 29 -9 44t-29.5 21t-52.5 7t-77 3q-37 0 -36 47q0 43 45 43h372q190 0 330.5 -16t263.5 -74q166 -78 277.5 -231.5t111.5 -358.5q0 -260 -180 -453.5t-414 -236.5q-72 -12 -182 -12h-579q-48 0 -48 57z M410 190q0 -37 16 -54t57 -25q66 -12 131 -13q244 0 424.5 146.5t180.5 402.5q0 152 -63.5 293t-182.5 229q-174 127 -426 127q-88 0 -112.5 -12t-24.5 -51v-1043zM473 1769q0 10 8 20.5t25 10.5q25 0 53 -28l84 -73q31 -26 47.5 -36t30.5 -10q27 0 110.5 73.5t108.5 73.5 q12 0 21.5 -8t9.5 -20.5t-23 -39.5l-153 -192q-37 -49 -78 -49q-25 0 -51 29l-165 202q-28 35 -28 47z" />
<glyph unicode="&#x10f;" horiz-adv-x="1503" d="M35 424q0 180 114.5 311t339.5 131h3q59 0 111 -7t81 -15l29 -8q14 0 14 18v344q0 16 -4 24.5t-16.5 16.5t-36.5 17l-66 26q-39 10 -39 33q0 10 19 22q254 125 264 125q25 0 24 -28q0 -18 -2 -104.5t-3 -236t-1 -323.5q0 -547 6 -602q0 -14 9.5 -19.5t30 -6.5t57.5 -3 q39 0 39 -28q0 -14 -10.5 -21.5t-46.5 -24t-64 -32.5q-39 -20 -72 -44t-47 -35t-23 -11q-16 0 -16 20v68q0 6 -4 6l-18 -12q-18 -12 -45 -27.5t-76 -28t-105 -12.5q-197 0 -321.5 135t-124.5 332zM172 442q0 -174 115.5 -276.5t240.5 -102.5q61 0 121 25t72 64q6 25 6 47 v458q0 29 -20 50q-84 78 -220 77q-154 0 -234.5 -91t-80.5 -251zM1130 1364q0 47 38 80t87 33q74 0 127.5 -69t53.5 -167q0 -119 -78 -194.5t-129 -75.5q-39 0 -39 35q0 16 10 25t35 23.5t43 30.5q53 49 53 97q0 35 -22.5 53t-50 21.5t-61.5 16.5t-50 38q-17 22 -17 53z" />
<glyph unicode="&#x114;" horiz-adv-x="1183" d="M18 37q0 18 10.5 27.5t45.5 22.5l100 38q29 10 37 26.5t8 53.5v1067q0 23 -9 29t-46 12q-59 2 -97 11t-38 46q0 45 39 45h942q35 0 45 -33l35 -157q25 -111 24 -115q0 -31 -43 -31q-31 0 -57 37q-47 88 -73 130t-40 51.5t-47 9.5h-385q-29 0 -43 -12.5t-17 -27t-3 -38.5 v-309q0 -45 40 -46h314q23 0 37 3.5t27.5 18.5t13.5 46v64q0 45 55 45q57 0 57 -60v-377q0 -59 -57 -59q-55 0 -55 45v111q0 45 -54 45h-282q-31 0 -48.5 -4t-35 -22.5t-17.5 -55.5v-469q0 -70 66 -78q88 -14 190 -14q70 0 169.5 11t125.5 32q18 14 71.5 111.5t70.5 107.5 q12 6 20 6q12 0 24.5 -12.5t12.5 -34.5v-2q0 -8 -64 -291q-4 -23 -17 -32t-44 -9h-704q-92 0 -171 -12.5t-83 -12.5q-25 0 -37.5 23t-12.5 39zM287 1739q0 14 15 29.5t34 15.5q6 0 42 -35t92 -69.5t115.5 -34.5t117 34.5t92 69.5t41.5 35q16 0 33.5 -15.5t17.5 -29.5 q0 -10 -36 -62.5t-109.5 -109t-151.5 -56.5h-8q-78 0 -151 56.5t-108.5 109t-35.5 62.5z" />
<glyph unicode="&#x115;" horiz-adv-x="837" d="M45 422q0 209 109.5 335t269.5 126q100 0 195.5 -56.5t156.5 -140.5q16 -20 17 -45v-2q0 -39 -60.5 -66.5t-105.5 -35.5q-317 -106 -377 -128t-60 -34q0 -18 12.5 -58.5t41 -97.5t94 -99t156.5 -42q139 0 243 100q29 29 47 29q33 0 33 -31q0 -16 -14 -33 q-66 -84 -161 -133t-202 -49q-53 0 -105 14.5t-105.5 48t-93.5 85t-65.5 132.5t-25.5 181zM182 477q0 -14 11 -14q4 0 190 72.5t192 74.5q18 8 19 25q0 27 -69.5 81t-145.5 54q-90 0 -143.5 -79t-53.5 -214zM182 1270v6q0 20 45 20q14 0 20.5 -8t8.5 -22.5t12.5 -40 t30.5 -51.5q55 -70 123 -70h2q35 0 65.5 16.5t53 43t37 49t26.5 44.5l10 23q10 14 25 14q37 0 37 -14q0 -12 -13.5 -57t-41 -105.5t-84 -106.5t-125.5 -46q-181 0 -232 305z" />
<glyph unicode="&#x116;" horiz-adv-x="1183" d="M18 37q0 18 10.5 27.5t45.5 22.5l100 38q29 10 37 26.5t8 53.5v1067q0 23 -9 29t-46 12q-59 2 -97 11t-38 46q0 45 39 45h942q35 0 45 -33l35 -157q25 -111 24 -115q0 -31 -43 -31q-31 0 -57 37q-47 88 -73 130t-40 51.5t-47 9.5h-385q-29 0 -43 -12.5t-17 -27t-3 -38.5 v-309q0 -45 40 -46h314q23 0 37 3.5t27.5 18.5t13.5 46v64q0 45 55 45q57 0 57 -60v-377q0 -59 -57 -59q-55 0 -55 45v111q0 45 -54 45h-282q-31 0 -48.5 -4t-35 -22.5t-17.5 -55.5v-469q0 -70 66 -78q88 -14 190 -14q70 0 169.5 11t125.5 32q18 14 71.5 111.5t70.5 107.5 q12 6 20 6q12 0 24.5 -12.5t12.5 -34.5v-2q0 -8 -64 -291q-4 -23 -17 -32t-44 -9h-704q-92 0 -171 -12.5t-83 -12.5q-25 0 -37.5 23t-12.5 39zM467 1667q0 49 36 83t83 34q49 0 84 -34t35 -81t-36 -81t-83 -34q-49 0 -84 33t-35 80z" />
<glyph unicode="&#x117;" horiz-adv-x="837" d="M45 422q0 209 109.5 335t269.5 126q100 0 195.5 -56.5t156.5 -140.5q16 -20 17 -45v-2q0 -39 -60.5 -66.5t-105.5 -35.5q-317 -106 -377 -128t-60 -34q0 -18 12.5 -58.5t41 -97.5t94 -99t156.5 -42q139 0 243 100q29 29 47 29q33 0 33 -31q0 -16 -14 -33 q-66 -84 -161 -133t-202 -49q-53 0 -105 14.5t-105.5 48t-93.5 85t-65.5 132.5t-25.5 181zM182 477q0 -14 11 -14q4 0 190 72.5t192 74.5q18 8 19 25q0 27 -69.5 81t-145.5 54q-90 0 -143.5 -79t-53.5 -214zM272 1079q0 49 36 83t83 34q49 0 84 -34t35 -81t-36 -80.5 t-83 -33.5q-49 0 -84 32.5t-35 79.5z" />
<glyph unicode="&#x11a;" horiz-adv-x="1183" d="M18 37q0 18 10.5 27.5t45.5 22.5l100 38q29 10 37 26.5t8 53.5v1067q0 23 -9 29t-46 12q-59 2 -97 11t-38 46q0 45 39 45h942q35 0 45 -33l35 -157q25 -111 24 -115q0 -31 -43 -31q-31 0 -57 37q-47 88 -73 130t-40 51.5t-47 9.5h-385q-29 0 -43 -12.5t-17 -27t-3 -38.5 v-309q0 -45 40 -46h314q23 0 37 3.5t27.5 18.5t13.5 46v64q0 45 55 45q57 0 57 -60v-377q0 -59 -57 -59q-55 0 -55 45v111q0 45 -54 45h-282q-31 0 -48.5 -4t-35 -22.5t-17.5 -55.5v-469q0 -70 66 -78q88 -14 190 -14q70 0 169.5 11t125.5 32q18 14 71.5 111.5t70.5 107.5 q12 6 20 6q12 0 24.5 -12.5t12.5 -34.5v-2q0 -8 -64 -291q-4 -23 -17 -32t-44 -9h-704q-92 0 -171 -12.5t-83 -12.5q-25 0 -37.5 23t-12.5 39zM336 1769q0 10 8 20.5t25 10.5q25 0 53 -28l84 -73q31 -26 47 -36t31 -10q27 0 110.5 73.5t108.5 73.5q12 0 21.5 -8t9.5 -20.5 t-22 -39.5l-155 -192q-37 -49 -77 -49q-25 0 -52 29l-164 202q-28 35 -28 47z" />
<glyph unicode="&#x11b;" horiz-adv-x="837" d="M45 422q0 209 109.5 335t269.5 126q100 0 195.5 -56.5t156.5 -140.5q16 -20 17 -45v-2q0 -39 -60.5 -66.5t-105.5 -35.5q-317 -106 -377 -128t-60 -34q0 -18 12.5 -58.5t41 -97.5t94 -99t156.5 -42q139 0 243 100q29 29 47 29q33 0 33 -31q0 -16 -14 -33 q-66 -84 -161 -133t-202 -49q-53 0 -105 14.5t-105.5 48t-93.5 85t-65.5 132.5t-25.5 181zM182 477q0 -14 11 -14q4 0 190 72.5t192 74.5q18 8 19 25q0 27 -69.5 81t-145.5 54q-90 0 -143.5 -79t-53.5 -214zM238 1384q0 16 10 24.5t20 8.5q25 0 54 -47l48 -83q34 -58 33 -60 q8 -10 20.5 -10t21 9t28.5 44l59 102q27 45 50 45q31 0 30 -31q0 -12 -51 -159.5t-76 -202.5q-25 -59 -59 -59q-27 0 -51.5 42t-53.5 131l-77 224q-6 18 -6 22z" />
<glyph unicode="&#x11c;" horiz-adv-x="1415" d="M33 725q0 307 200.5 514t487.5 207q84 0 164 -20.5t127 -44t84 -45t41 -23.5h8q23 0 53.5 39t36.5 41q10 6 25 6q29 0 28 -29v-55q0 -72 3 -145.5t8.5 -119.5t7.5 -79l4 -35q0 -33 -60 -33q-23 0 -31 13.5t-10 36t-19 66.5t-50 91q-78 106 -197 172t-248 66 q-82 0 -159.5 -32t-146 -98.5t-110.5 -186.5t-42 -279q0 -156 35.5 -280t91 -198.5t128 -125t141 -70t138.5 -19.5q117 0 218.5 48.5t119.5 85.5q6 12 6 34v232q0 33 -16.5 46t-59.5 17t-116 10q-57 4 -58 48q0 47 45 47q6 0 34 -2t75 -4.5t102 -2.5h4q57 0 107.5 2.5 t78 4.5t34.5 2q27 0 40 -13.5t13 -29.5q0 -35 -51.5 -53.5t-57.5 -41.5q-2 -6 -2 -20v-346q0 -41 -28 -41q-12 0 -33 21.5t-29 21.5q-12 0 -29 -16q-180 -158 -419 -158q-291 0 -504 227.5t-213 546.5zM467 1520q0 12 22 40l154 191q37 49 78 49q25 0 51 -28l168 -206 t25 -44q0 -10 -8.5 -20.5t-24.5 -10.5q-25 0 -53 29l-113 94q-31 25 -49 24q-27 0 -111 -73.5t-108 -73.5q-31 0 -31 29z" />
<glyph unicode="&#x11d;" horiz-adv-x="901" d="M45 567q0 131 95.5 225.5t236.5 94.5q86 0 167 -37t91 -37q61 0 106 66q29 47 60 47q29 0 53.5 -27t24.5 -57q0 -35 -31 -61.5t-73 -43t-44 -18.5q-8 -8 -8 -17q0 -4 5 -20t11 -45t6 -64q0 -143 -98 -243.5t-241 -100.5q-39 0 -75 9.5t-44 9.5q-29 0 -60.5 -36t-31.5 -69 q0 -53 86 -71.5t222 -22.5t193 -20q92 -27 139.5 -90.5t47.5 -137.5q0 -106 -99.5 -193t-326.5 -87q-96 0 -170 18.5t-117 45t-69.5 63.5t-36 67.5t-9.5 63.5q0 29 8.5 56.5t19.5 45t25.5 33.5t24.5 24.5t19 12.5l10 6q4 4 4 8q0 2 -18.5 14.5t-38 40t-19.5 68.5q0 20 6 43 t16.5 41t22.5 34.5t26 30.5l22 22q9 9 18 15l6 7q2 2 2 6q0 8 -18.5 18t-50 39t-56.5 74q-39 65 -39 149zM170 -180q0 -90 95 -146.5t239 -56.5q141 0 200.5 46t59.5 104q0 84 -82 120q-41 20 -96.5 27.5t-157.5 11.5t-178 13h-6q-12 0 -35 -23q-39 -39 -39 -96zM205 592 q0 -119 59.5 -205t151.5 -86q82 0 132 65.5t50 161.5q0 113 -60.5 201t-154.5 88q-78 0 -128 -62.5t-50 -162.5zM211 1012q0 12 50 158.5t77 203.5q25 59 59 60q27 0 51.5 -42t54.5 -131l77 -225q6 -18 6 -22q0 -16 -10.5 -24.5t-20.5 -8.5q-25 0 -53 47l-59 104 q-19 34 -26 42t-18 8q-12 0 -20 -9.5t-29 -44.5l-59 -104q-27 -43 -49 -43q-31 0 -31 31z" />
<glyph unicode="&#x11e;" horiz-adv-x="1415" d="M33 725q0 307 200.5 514t487.5 207q84 0 164 -20.5t127 -44t84 -45t41 -23.5h8q23 0 53.5 39t36.5 41q10 6 25 6q29 0 28 -29v-55q0 -72 3 -145.5t8.5 -119.5t7.5 -79l4 -35q0 -33 -60 -33q-23 0 -31 13.5t-10 36t-19 66.5t-50 91q-78 106 -197 172t-248 66 q-82 0 -159.5 -32t-146 -98.5t-110.5 -186.5t-42 -279q0 -156 35.5 -280t91 -198.5t128 -125t141 -70t138.5 -19.5q117 0 218.5 48.5t119.5 85.5q6 12 6 34v232q0 33 -16.5 46t-59.5 17t-116 10q-57 4 -58 48q0 47 45 47q6 0 34 -2t75 -4.5t102 -2.5h4q57 0 107.5 2.5 t78 4.5t34.5 2q27 0 40 -13.5t13 -29.5q0 -35 -51.5 -53.5t-57.5 -41.5q-2 -6 -2 -20v-346q0 -41 -28 -41q-12 0 -33 21.5t-29 21.5q-12 0 -29 -16q-180 -158 -419 -158q-291 0 -504 227.5t-213 546.5zM418 1739q0 14 15.5 29.5t33.5 15.5q6 0 42 -35t92 -69.5t115.5 -34.5 t117 34.5t92.5 69.5t41 35q16 0 33.5 -15.5t17.5 -29.5q0 -10 -36 -62.5t-109.5 -109t-151.5 -56.5h-8q-78 0 -151 56.5t-108.5 109t-35.5 62.5z" />
<glyph unicode="&#x11f;" horiz-adv-x="901" d="M45 567q0 131 95.5 225.5t236.5 94.5q86 0 167 -37t91 -37q61 0 106 66q29 47 60 47q29 0 53.5 -27t24.5 -57q0 -35 -31 -61.5t-73 -43t-44 -18.5q-8 -8 -8 -17q0 -4 5 -20t11 -45t6 -64q0 -143 -98 -243.5t-241 -100.5q-39 0 -75 9.5t-44 9.5q-29 0 -60.5 -36t-31.5 -69 q0 -53 86 -71.5t222 -22.5t193 -20q92 -27 139.5 -90.5t47.5 -137.5q0 -106 -99.5 -193t-326.5 -87q-96 0 -170 18.5t-117 45t-69.5 63.5t-36 67.5t-9.5 63.5q0 29 8.5 56.5t19.5 45t25.5 33.5t24.5 24.5t19 12.5l10 6q4 4 4 8q0 2 -18.5 14.5t-38 40t-19.5 68.5q0 20 6 43 t16.5 41t22.5 34.5t26 30.5l22 22q9 9 18 15l6 7q2 2 2 6q0 8 -18.5 18t-50 39t-56.5 74q-39 65 -39 149zM170 -180q0 -90 95 -146.5t239 -56.5q141 0 200.5 46t59.5 104q0 84 -82 120q-41 20 -96.5 27.5t-157.5 11.5t-178 13h-6q-12 0 -35 -23q-39 -39 -39 -96zM205 592 q0 -119 59.5 -205t151.5 -86q82 0 132 65.5t50 161.5q0 113 -60.5 201t-154.5 88q-78 0 -128 -62.5t-50 -162.5zM215 1286v6q0 20 45 21q14 0 20.5 -8.5t8.5 -22.5t12 -39.5t31 -52.5q55 -70 123 -70h2q35 0 65.5 16.5t53 43t37 49t26.5 45.5l10 22q10 14 25 15q37 0 37 -15 q0 -12 -13.5 -57t-41 -105.5t-84 -106.5t-126.5 -46q-180 0 -231 305z" />
<glyph unicode="&#x120;" horiz-adv-x="1415" d="M33 725q0 307 200.5 514t487.5 207q84 0 164 -20.5t127 -44t84 -45t41 -23.5h8q23 0 53.5 39t36.5 41q10 6 25 6q29 0 28 -29v-55q0 -72 3 -145.5t8.5 -119.5t7.5 -79l4 -35q0 -33 -60 -33q-23 0 -31 13.5t-10 36t-19 66.5t-50 91q-78 106 -197 172t-248 66 q-82 0 -159.5 -32t-146 -98.5t-110.5 -186.5t-42 -279q0 -156 35.5 -280t91 -198.5t128 -125t141 -70t138.5 -19.5q117 0 218.5 48.5t119.5 85.5q6 12 6 34v232q0 33 -16.5 46t-59.5 17t-116 10q-57 4 -58 48q0 47 45 47q6 0 34 -2t75 -4.5t102 -2.5h4q57 0 107.5 2.5 t78 4.5t34.5 2q27 0 40 -13.5t13 -29.5q0 -35 -51.5 -53.5t-57.5 -41.5q-2 -6 -2 -20v-346q0 -41 -28 -41q-12 0 -33 21.5t-29 21.5q-12 0 -29 -16q-180 -158 -419 -158q-291 0 -504 227.5t-213 546.5zM608 1667q0 49 36 83t83 34q49 0 84 -34t35 -81t-36 -81t-83 -34 q-49 0 -84 33t-35 80z" />
<glyph unicode="&#x121;" horiz-adv-x="901" d="M45 567q0 131 95.5 225.5t236.5 94.5q86 0 167 -37t91 -37q61 0 106 66q29 47 60 47q29 0 53.5 -27t24.5 -57q0 -35 -31 -61.5t-73 -43t-44 -18.5q-8 -8 -8 -17q0 -4 5 -20t11 -45t6 -64q0 -143 -98 -243.5t-241 -100.5q-39 0 -75 9.5t-44 9.5q-29 0 -60.5 -36t-31.5 -69 q0 -53 86 -71.5t222 -22.5t193 -20q92 -27 139.5 -90.5t47.5 -137.5q0 -106 -99.5 -193t-326.5 -87q-96 0 -170 18.5t-117 45t-69.5 63.5t-36 67.5t-9.5 63.5q0 29 8.5 56.5t19.5 45t25.5 33.5t24.5 24.5t19 12.5l10 6q4 4 4 8q0 2 -18.5 14.5t-38 40t-19.5 68.5q0 20 6 43 t16.5 41t22.5 34.5t26 30.5l22 22q9 9 18 15l6 7q2 2 2 6q0 8 -18.5 18t-50 39t-56.5 74q-39 65 -39 149zM170 -180q0 -90 95 -146.5t239 -56.5q141 0 200.5 46t59.5 104q0 84 -82 120q-41 20 -96.5 27.5t-157.5 11.5t-178 13h-6q-12 0 -35 -23q-39 -39 -39 -96zM205 592 q0 -119 59.5 -205t151.5 -86q82 0 132 65.5t50 161.5q0 113 -60.5 201t-154.5 88q-78 0 -128 -62.5t-50 -162.5zM344 1094q0 49 36 82.5t83 33.5q49 0 84 -33.5t35 -80.5t-36 -81t-83 -34q-49 0 -84 33t-35 80z" />
<glyph unicode="&#x122;" horiz-adv-x="1415" d="M33 725q0 307 200.5 514t487.5 207q84 0 164 -20.5t127 -44t84 -45t41 -23.5h8q23 0 53.5 39t36.5 41q10 6 25 6q29 0 28 -29v-55q0 -72 3 -145.5t8.5 -119.5t7.5 -79l4 -35q0 -33 -60 -33q-23 0 -31 13.5t-10 36t-19 66.5t-50 91q-78 106 -197 172t-248 66 q-82 0 -159.5 -32t-146 -98.5t-110.5 -186.5t-42 -279q0 -156 35.5 -280t91 -198.5t128 -125t141 -70t138.5 -19.5q117 0 218.5 48.5t119.5 85.5q6 12 6 34v232q0 33 -16.5 46t-59.5 17t-116 10q-57 4 -58 48q0 47 45 47q6 0 34 -2t75 -4.5t102 -2.5h4q57 0 107.5 2.5 t78 4.5t34.5 2q27 0 40 -13.5t13 -29.5q0 -35 -51.5 -53.5t-57.5 -41.5q-2 -6 -2 -20v-346q0 -41 -28 -41q-12 0 -33 21.5t-29 21.5q-12 0 -29 -16q-180 -158 -419 -158q-291 0 -504 227.5t-213 546.5zM563 -244q0 47 38 80t87 33q74 0 127 -68.5t53 -167.5 q0 -119 -77.5 -194.5t-128.5 -75.5q-39 0 -39 35q0 16 10 25.5t34.5 23.5t43.5 31q53 49 53 96q0 35 -22.5 53.5t-50 21.5t-61.5 16t-50 38q-17 22 -17 53z" />
<glyph unicode="&#x124;" horiz-adv-x="1560" d="M29 1352q0 10 3 21t14 22.5t30 11.5q6 0 37.5 -1t85 -2t116.5 -1h7q66 0 121 1t86.5 2t37.5 1q14 0 22.5 -6t11.5 -14.5t5 -22.5q0 -4 1 -10t1 -8q0 -20 -12 -27.5t-47 -9.5t-96 -6q-47 -2 -47 -62v-338q0 -29 26 -29h692q35 0 35 37v303q0 74 -43 89q-16 6 -45 8 t-49.5 3t-35.5 11t-15 33q0 49 49 49q6 0 32.5 -1t75 -2t103.5 -1q63 0 127.5 2t103.5 4l37 2q39 0 39 -41q0 -29 -15.5 -41t-46.5 -16l-79 -10q-55 -6 -56 -60v-1075v-10q0 -61 58 -66q39 -4 67.5 -4t44 -11t15.5 -36q0 -53 -41 -53l-35 4l-96 5q-59 3 -118.5 3t-119 -3 t-94.5 -5l-35 -4q-33 0 -33 41q0 31 10.5 42t42 14t93.5 7q39 2 50 20.5t11 57.5v555q0 23 -26 23h-699q-31 0 -30 -35v-555q0 -18 3 -28.5t26.5 -23t68.5 -16.5q23 2 61.5 -6t38.5 -39q0 -57 -33 -57l-34 4q-35 2 -94.5 5t-118.5 3q-61 0 -122 -3t-96 -5l-34 -4 q-41 0 -41 55q0 23 11 31t42 10t86 6q33 2 43 18.5t10 47.5v1083q0 31 -13 45t-37 18l-54 7q-29 0 -59.5 7t-30.5 36zM535 1520q0 12 21 40l155 191q37 49 77 49q25 0 52 -28q143 -174 167.5 -206t24.5 -44q0 -10 -8 -20.5t-25 -10.5q-25 0 -53 29l-112 94q-31 25 -50 24 q-27 0 -110.5 -73.5t-108.5 -73.5q-30 0 -30 29z" />
<glyph unicode="&#x125;" horiz-adv-x="1052" d="M25 1303q0 23 32 38q225 131 236 132h2q31 0 31 -39l-2 -631q0 -14 10 -15q2 0 33.5 19.5t89 38t118.5 18.5q195 0 275 -186q31 -74 42 -169t17 -374q0 -20 4.5 -32.5t15.5 -19.5t21.5 -9t34.5 -4q35 -4 35 -37q0 -45 -27 -45l-26 4q-25 2 -70 5t-90 3q-43 0 -87 -3 t-71 -5l-26 -4q-23 0 -23 28v15q0 29 24.5 35t92.5 12q31 4 36 30.5t5 147.5q0 201 -25.5 290t-73.5 140q-74 74 -165 74q-61 0 -115.5 -34t-63.5 -67q-2 -8 -2 -26q0 -492 4 -506q6 -29 31 -41t52.5 -12t49 -9.5t21.5 -33.5q0 -43 -22 -43l-27 4q-27 2 -72 5t-90 3 q-47 0 -93 -3t-73 -5l-26 -4q-25 0 -25 41q0 16 7 24t23.5 11.5l45.5 9.5q23 4 34 17t12 22.5l3 29.5q10 311 10 564v8q0 453 -8 502q-4 25 -74.5 42t-70.5 44zM68 1520q0 12 21 40l155 191q37 49 78 49q25 0 51 -28q143 -174 167.5 -206t24.5 -44q0 -10 -8 -20.5t-25 -10.5 q-25 0 -53 29l-112 94q-31 25 -50 24q-27 0 -110.5 -73.5t-108.5 -73.5q-30 0 -30 29z" />
<glyph unicode="&#x128;" horiz-adv-x="661" d="M14 1522q0 6 36 60t56 75q47 47 103 47q45 0 114.5 -44t114.5 -44q41 0 76 23.5t55.5 47t28.5 23.5t23.5 -8t15.5 -19q0 -12 -40 -59t-75 -74q-57 -45 -119 -45q-55 0 -117.5 46t-101.5 46t-71.5 -26.5t-50 -53t-21.5 -26.5q-6 0 -16.5 11.5t-10.5 19.5zM27 53 q0 20 12 28.5t51 10.5t109 6q43 2 43 58v1065q0 6 1 16t1 12q0 20 -11.5 28.5t-41 10.5t-82.5 4q-47 4 -48 43q0 57 45 58l33 -2l91 -6q56 -3 112 -3q57 0 105.5 2t75 4.5t32.5 2.5q35 0 35 -39q0 -23 -5 -35t-19.5 -17.5t-40 -7.5t-64.5 -6q-33 -2 -33 -35v-1106 q0 -47 37 -51q86 -2 124 -8t38 -39q0 -59 -41 -59l-37 4q-37 2 -99.5 5t-124 3t-125 -3t-100.5 -5l-37 -4q-31 0 -34 47q-2 6 -2 18z" />
<glyph unicode="&#x129;" horiz-adv-x="497" d="M-82 1180q0 6 36 60t56 75q47 47 103 47q47 0 114.5 -44t114.5 -44q41 0 76 23.5t55.5 47t28.5 23.5t23.5 -8t15.5 -19q0 -12 -40 -59t-75 -74q-57 -45 -119 -45q-55 0 -117.5 46t-101.5 46t-71.5 -26.5t-50 -53t-21.5 -26.5q-6 0 -16.5 11.5t-10.5 19.5zM31 753.5 q0 16.5 19.5 28t35.5 15.5q221 106 225 106h2q29 0 29 -33l-2 -65q-4 -66 -7 -177.5t-3 -221.5v-68q0 -186 6 -222t41 -40q33 -4 53.5 -7t29.5 -11.5t9 -24.5q0 -45 -25 -45l-26 4q-27 2 -72 5t-90 3t-90 -3t-72 -5l-26 -4q-31 0 -31 35q0 33 12 39t88 16q35 6 45.5 23.5 t10.5 50.5v96v193q0 89 1 140.5t1 61.5q0 16 -7.5 24.5t-38 21.5t-94.5 38q-24 10 -24 26.5z" />
<glyph unicode="&#x12c;" horiz-adv-x="661" d="M27 53q0 20 12 28.5t51 10.5t109 6q43 2 43 58v1065q0 6 1 16t1 12q0 20 -11.5 28.5t-41 10.5t-82.5 4q-47 4 -48 43q0 57 45 58l33 -2l91 -6q56 -3 112 -3q57 0 105.5 2t75 4.5t32.5 2.5q35 0 35 -39q0 -23 -5 -35t-19.5 -17.5t-40 -7.5t-64.5 -6q-33 -2 -33 -35v-1106 q0 -47 37 -51q86 -2 124 -8t38 -39q0 -59 -41 -59l-37 4q-37 2 -99.5 5t-124 3t-125 -3t-100.5 -5l-37 -4q-31 0 -34 47q-2 6 -2 18zM27 1739q0 14 15 29.5t34 15.5q6 0 42 -35t92 -69.5t115.5 -34.5t117 34.5t92 69.5t40.5 35q16 0 34 -15.5t18 -29.5q0 -10 -36 -62.5 t-109.5 -109t-151.5 -56.5h-8q-78 0 -151 56.5t-108.5 109t-35.5 62.5z" />
<glyph unicode="&#x12d;" horiz-adv-x="497" d="M2 1288v6q0 20 45 21q14 0 20.5 -8.5t8.5 -22.5t12 -39.5t31 -52.5q55 -70 123 -70h2q35 0 65.5 16.5t53 43t37 49t26.5 45.5l10 22q10 14 25 15q37 0 37 -15q0 -12 -13.5 -57t-41 -105.5t-84 -106.5t-126.5 -46q-180 0 -231 305zM31 753.5q0 16.5 19.5 28t35.5 15.5 q221 106 225 106h2q29 0 29 -33l-2 -65q-4 -66 -7 -177.5t-3 -221.5v-68q0 -186 6 -222t41 -40q33 -4 53.5 -7t29.5 -11.5t9 -24.5q0 -45 -25 -45l-26 4q-27 2 -72 5t-90 3t-90 -3t-72 -5l-26 -4q-31 0 -31 35q0 33 12 39t88 16q35 6 45.5 23.5t10.5 50.5v96v193 q0 89 1 140.5t1 61.5q0 16 -7.5 24.5t-38 21.5t-94.5 38q-24 10 -24 26.5z" />
<glyph unicode="&#x130;" horiz-adv-x="661" d="M27 53q0 20 12 28.5t51 10.5t109 6q43 2 43 58v1065q0 6 1 16t1 12q0 20 -11.5 28.5t-41 10.5t-82.5 4q-47 4 -48 43q0 57 45 58l33 -2l91 -6q56 -3 112 -3q57 0 105.5 2t75 4.5t32.5 2.5q35 0 35 -39q0 -23 -5 -35t-19.5 -17.5t-40 -7.5t-64.5 -6q-33 -2 -33 -35v-1106 q0 -47 37 -51q86 -2 124 -8t38 -39q0 -59 -41 -59l-37 4q-37 2 -99.5 5t-124 3t-125 -3t-100.5 -5l-37 -4q-31 0 -34 47q-2 6 -2 18zM207 1667q0 49 36 83t83 34q49 0 83.5 -34t34.5 -81t-35.5 -81t-82.5 -34q-49 0 -84 33t-35 80z" />
<glyph unicode="&#x131;" horiz-adv-x="497" d="M31 753.5q0 16.5 19.5 28t35.5 15.5q221 106 225 106h2q29 0 29 -33l-2 -65q-4 -66 -7 -177.5t-3 -221.5v-68q0 -186 6 -222t41 -40q33 -4 53.5 -7t29.5 -11.5t9 -24.5q0 -45 -25 -45l-26 4q-27 2 -72 5t-90 3t-90 -3t-72 -5l-26 -4q-31 0 -31 35q0 33 12 39t88 16 q35 6 45.5 23.5t10.5 50.5v96v193q0 89 1 140.5t1 61.5q0 16 -7.5 24.5t-38 21.5t-94.5 38q-24 10 -24 26.5z" />
<glyph unicode="&#x132;" horiz-adv-x="1308" d="M27 53q0 20 12 28.5t51 10.5t109 6q43 2 43 58v1065q0 6 1 16t1 12q0 20 -11.5 28.5t-41 10.5t-82.5 4q-47 4 -48 43q0 57 45 58l33 -2l91 -6q56 -3 112 -3q57 0 105.5 2t75 4.5t32.5 2.5q35 0 35 -39q0 -23 -5 -35t-19.5 -17.5t-40 -7.5t-64.5 -6q-33 -2 -33 -35v-1106 q0 -47 37 -51q86 -2 124 -8t38 -39q0 -59 -41 -59l-37 4q-37 2 -99.5 5t-124 3t-125 -3t-100.5 -5l-37 -4q-31 0 -34 47q-2 6 -2 18zM494 -276q0 41 25.5 70.5t66.5 29.5q51 0 102 -67.5t94 -67.5q70 0 103 125q18 66 18 133v1272q0 35 -17.5 49t-54 17t-94.5 9 q-45 4 -45 43q0 55 45 56l37 -2l96.5 -5.5t120.5 -3.5h8q63 0 116.5 2t85.5 4.5t38 2.5q35 0 35 -41q0 -31 -12.5 -43.5t-42 -15.5t-76.5 -7q-53 -4 -53 -70v-1099q0 -119 -49.5 -227.5t-131.5 -186.5q-18 -18 -52 -45t-94.5 -58.5t-105.5 -31.5q-70 0 -116.5 50.5 t-46.5 107.5z" />
<glyph unicode="&#x133;" horiz-adv-x="972" d="M31 753.5q0 16.5 19.5 28t35.5 15.5q221 106 225 106h2q29 0 29 -33l-2 -65q-4 -66 -7 -177.5t-3 -221.5v-68q0 -186 6 -222t41 -40q33 -4 53.5 -7t29.5 -11.5t9 -24.5q0 -45 -25 -45l-26 4q-27 2 -72 5t-90 3t-90 -3t-72 -5l-26 -4q-31 0 -31 35q0 33 12 39t88 16 q35 6 45.5 23.5t10.5 50.5v96v193q0 89 1 140.5t1 61.5q0 16 -7.5 24.5t-38 21.5t-94.5 38q-24 10 -24 26.5zM213 1266q0 39 28.5 67.5t69.5 28.5t70 -27.5t29 -66.5q0 -41 -30 -70t-71 -29t-68.5 28t-27.5 69zM424 -403q0 33 24.5 60.5t65.5 27.5q12 0 31.5 -3.5t29.5 -3.5 q25 0 47.5 9.5t46 48.5t23.5 104v58q0 47 -1 130t-1 181q0 115 1 213t2 153.5t1 67.5q0 23 -7 34t-34.5 29.5t-81.5 49.5q-18 10 -18 24q0 10 9 17.5t65 30.5l172 73q8 4 14 4q20 0 21 -33q0 -10 -1.5 -60t-2.5 -138t-1 -193q0 -162 2.5 -301t4.5 -218t2 -95q0 -43 -31 -90 q-29 -41 -65.5 -85t-110.5 -104.5t-129 -60.5q-33 0 -55.5 19.5t-22.5 50.5zM711 1237q0 41 28.5 68.5t69.5 27.5t69.5 -27.5t28.5 -66.5t-29.5 -67.5t-70.5 -28.5t-68.5 27.5t-27.5 66.5z" />
<glyph unicode="&#x134;" horiz-adv-x="647" d="M-168 -276q0 41 25.5 70.5t66.5 29.5q51 0 102.5 -67.5t94.5 -67.5q70 0 102 125q18 66 19 133v1272q0 35 -17.5 49t-54.5 17t-94 9q-45 4 -45 43q0 55 45 56l35 -2l98 -5.5t121 -3.5h8q63 0 116.5 2t85 4.5t38.5 2.5q35 0 34 -41q0 -31 -12 -43.5t-42 -15.5t-77 -7 q-53 -4 -53 -70v-1099q0 -119 -49 -227.5t-131 -186.5q-18 -18 -52 -45t-94.5 -58.5t-105.5 -31.5q-70 0 -117 50.5t-47 107.5zM72 1520q0 12 21 40l155 191q37 49 78 49q25 0 51 -28q143 -174 167.5 -206t24.5 -44q0 -10 -8 -20.5t-24 -10.5q-25 0 -54 29l-112 94 q-31 25 -49 24q-27 0 -111 -73.5t-109 -73.5q-30 0 -30 29z" />
<glyph unicode="&#x135;" horiz-adv-x="475" d="M-74 -403q0 33 24.5 60.5t65.5 27.5q12 0 32 -3.5t30 -3.5q25 0 47 9.5t46 48.5t24 104q0 10 -1 57.5t-1 131.5v180q0 115 1 213t2 153.5t1 67.5q0 23 -7.5 34t-35 29.5t-80.5 49.5q-18 10 -19 24q0 10 9.5 17.5t64.5 30.5l172 73q8 4 14 4q20 0 21 -33q0 -10 -1 -60 t-2 -138t-1 -193q0 -162 2 -301t4 -218t2 -95q0 -43 -31 -90q-29 -41 -65.5 -85t-110.5 -104.5t-129 -60.5q-33 0 -55.5 19.5t-22.5 50.5zM43 1018q0 12 50 158.5t77 203.5q25 59 59 60q27 0 51.5 -42t54.5 -131l77 -225q6 -18 6 -22q0 -16 -10.5 -24.5t-20.5 -8.5 q-25 0 -53 47l-59 104q-19 34 -26 42t-18 8q-12 0 -20 -9.5t-29 -43.5l-59 -105q-27 -43 -49 -43q-31 0 -31 31z" />
<glyph unicode="&#x136;" horiz-adv-x="1339" d="M25 1360q0 18 14 33.5t45 15.5q6 0 34.5 -2t80 -4t110.5 -2h2q59 0 110.5 2t80 4t35.5 2q31 0 45 -17.5t14 -35.5q0 -37 -75 -42t-83 -9q-31 -14 -30 -68v-8v-436q0 -35 26 -35q14 0 53 43q365 406 373 420q16 20 17 43q0 29 -21.5 42t-46.5 13t-46.5 10t-21.5 35 q0 43 47 43q6 0 34 -1t76 -2t106 -1h12q53 0 100 1t72.5 2t32.5 1q57 0 57 -43q0 -25 -27.5 -36t-78 -19.5t-76.5 -18.5q-41 -16 -81 -56t-67 -73l-320 -345q-46 -50 -46 -62q0 -14 16 -31l492 -519q66 -71 86 -83q35 -23 78.5 -30t60.5 -23q12 -16 12 -31 q0 -16 -15.5 -31.5t-43.5 -15.5q-10 0 -37 4t-60 4q-72 -2 -108.5 1t-51 11t-40.5 39l-450 518q-69 78 -85 78h-2q-29 0 -28 -41v-432q0 -31 7 -45t25.5 -21.5t50 -9.5t80.5 -6q45 -6 45 -45q0 -57 -41 -57l-36 4q-35 2 -96.5 5t-123.5 3q-59 0 -120.5 -3t-98.5 -5l-35 -4 q-35 0 -34 47q0 33 25.5 45t57 10t64.5 7t45 36q6 14 6 57v1018q0 29 -5 47.5t-15 28.5t-26.5 14.5t-41 7.5t-57.5 5q-57 4 -57 49zM522 -207q0 47 38 80t87 33q74 0 127 -68.5t53 -167.5q0 -119 -77.5 -194.5t-128.5 -75.5q-39 0 -39 35q0 16 10 25.5t34.5 23.5t43.5 31 q53 49 53 96q0 35 -22.5 53.5t-50 21.5t-61.5 16t-50 38q-17 22 -17 53z" />
<glyph unicode="&#x137;" horiz-adv-x="929" d="M10 1350q0 20 41 34q195 86 203 86q23 0 22 -34v-967q0 -8 7 -8q8 0 12 8q137 135 170 172t33 69.5t-27 54t-27 32.5v20q0 27 43 27h119q59 0 110.5 2t80 3t34.5 1q31 0 31 -39q0 -25 -10 -32t-47 -11t-62 -10q-43 -12 -93 -48t-82 -68l-122 -124q-14 -14 -14 -18 q0 -6 30 -42l208 -249q35 -43 57.5 -65.5t64.5 -47t87 -30.5q33 -4 32 -35q0 -43 -32 -43l-27 4l-76 5t-94 3t-94 -3l-76 -5l-27 -4q-27 0 -26 35v2q0 27 15 37t32.5 10t33 7t15.5 27q0 29 -96.5 156t-114.5 146q0 4 -8 4t-31.5 -26t-25.5 -34q-2 -6 -3 -22v-211 q0 -29 14.5 -35t80.5 -14q43 -10 43 -43q0 -35 -29 -35q-4 0 -23.5 2t-55.5 4t-79 2t-78.5 -2t-56 -4t-24.5 -2q-35 0 -35 37q0 35 50 42t54 44v1104q0 33 -24 49l-95 65zM307 -207q0 47 38 80t87 33q74 0 127 -68.5t53 -167.5q0 -119 -77.5 -194.5t-128.5 -75.5 q-39 0 -39 35q0 16 10 25.5t34.5 23.5t43.5 31q53 49 53 96q0 35 -22.5 53.5t-50 21.5t-61.5 16t-50 38q-17 22 -17 53z" />
<glyph unicode="&#x139;" horiz-adv-x="1153" d="M23 1337q0 51 38 52q4 0 77 -2.5t157 -4.5h14q66 0 121 1t88 3.5t39 2.5q23 0 29 -13.5t6 -42.5q0 -47 -45 -47q-68 0 -106 -1t-50 -12t-12 -46v-1039q0 -20 3 -32.5t15.5 -22.5t34.5 -10h391h6q76 0 113 55q10 16 45 92t41 82q12 16 31 17q10 0 22.5 -3.5t25.5 -14.5 t13 -29q0 -14 -41 -289q-2 -14 -5 -22.5t-15 -15.5t-35 -7l-121 4q-121 2 -325.5 5t-407.5 3h-109q-33 0 -32 33q0 16 5 24.5t18.5 13.5t35 10t53.5 11q47 12 47 66v6v1075q0 29 -10 38t-35.5 10t-68.5 1q-51 4 -51 49zM317 1532q0 27 39 53l283 205q61 47 104 47 q33 0 57.5 -21.5t24.5 -52.5q0 -27 -18.5 -49t-28.5 -27.5l-37 -19.5q-371 -176 -383 -176q-16 0 -28.5 11.5t-12.5 29.5z" />
<glyph unicode="&#x13a;" horiz-adv-x="489" d="M23 1329v2q0 10 32.5 28.5t218.5 113.5q12 8 25 8q29 0 29 -39v-1297q0 -25 5 -38t16 -19t31.5 -9t51.5 -9q35 -6 35 -41q0 -41 -25 -41l-28 4q-27 2 -73 5t-91 3q-43 0 -87 -2t-71 -6l-26 -2q-29 0 -29 37v6q0 27 12 33t72 12q37 4 47 22.5t10 55.5v1042q0 14 -4 22.5 t-15.5 13.5t-27.5 15q-61 35 -84.5 50.5t-23.5 29.5zM43 1542q0 14 9 30.5t57 87.5l149 220q55 86 113 86q31 0 53 -21.5t22 -54.5q0 -39 -49 -92q-266 -272 -284 -287q-14 -10 -31 -10q-18 0 -28.5 12.5t-10.5 28.5z" />
<glyph unicode="&#x13b;" horiz-adv-x="1153" d="M23 1337q0 51 38 52q4 0 77 -2.5t157 -4.5h14q66 0 121 1t88 3.5t39 2.5q23 0 29 -13.5t6 -42.5q0 -47 -45 -47q-68 0 -106 -1t-50 -12t-12 -46v-1039q0 -20 3 -32.5t15.5 -22.5t34.5 -10h391h6q76 0 113 55q10 16 45 92t41 82q12 16 31 17q10 0 22.5 -3.5t25.5 -14.5 t13 -29q0 -14 -41 -289q-2 -14 -5 -22.5t-15 -15.5t-35 -7l-121 4q-121 2 -325.5 5t-407.5 3h-109q-33 0 -32 33q0 16 5 24.5t18.5 13.5t35 10t53.5 11q47 12 47 66v6v1075q0 29 -10 38t-35.5 10t-68.5 1q-51 4 -51 49zM418 -207q0 47 38 80t87 33q74 0 127 -68.5t53 -167.5 q0 -119 -78 -194.5t-129 -75.5q-39 0 -39 35q0 16 10.5 25.5t35 23.5t42.5 31q53 49 53 96q0 35 -22.5 53.5t-50 21.5t-61 16t-50.5 38q-16 22 -16 53z" />
<glyph unicode="&#x13c;" horiz-adv-x="489" d="M23 1329v2q0 10 32.5 28.5t218.5 113.5q12 8 25 8q29 0 29 -39v-1297q0 -25 5 -38t16 -19t31.5 -9t51.5 -9q35 -6 35 -41q0 -41 -25 -41l-28 4q-27 2 -73 5t-91 3q-43 0 -87 -2t-71 -6l-26 -2q-29 0 -29 37v6q0 27 12 33t72 12q37 4 47 22.5t10 55.5v1042q0 14 -4 22.5 t-15.5 13.5t-27.5 15q-61 35 -84.5 50.5t-23.5 29.5zM92 -207q0 47 38 80t87 33q74 0 127 -68.5t53 -167.5q0 -119 -77.5 -194.5t-129.5 -75.5q-39 0 -38 35q0 16 10 25.5t34.5 23.5t43.5 31q53 49 53 96q0 35 -22.5 53.5t-50 21.5t-61.5 16t-50 38q-17 22 -17 53z" />
<glyph unicode="&#x13d;" horiz-adv-x="1153" d="M23 1337q0 51 38 52q4 0 77 -2.5t157 -4.5h14q66 0 121 1t88 3.5t39 2.5q23 0 29 -13.5t6 -42.5q0 -47 -45 -47q-68 0 -106 -1t-50 -12t-12 -46v-1039q0 -20 3 -32.5t15.5 -22.5t34.5 -10h391h6q76 0 113 55q10 16 45 92t41 82q12 16 31 17q10 0 22.5 -3.5t25.5 -14.5 t13 -29q0 -14 -41 -289q-2 -14 -5 -22.5t-15 -15.5t-35 -7l-121 4q-121 2 -325.5 5t-407.5 3h-109q-33 0 -32 33q0 16 5 24.5t18.5 13.5t35 10t53.5 11q47 12 47 66v6v1075q0 29 -10 38t-35.5 10t-68.5 1q-51 4 -51 49zM831 1358q0 47 38 79.5t87 32.5q74 0 127.5 -68.5 t53.5 -166.5q0 -119 -78 -194.5t-129 -75.5q-39 0 -39 34q0 16 10 25.5t35 24t43 30.5q53 49 53 97q0 35 -22.5 53t-50 21t-61.5 16.5t-50 38.5q-17 22 -17 53z" />
<glyph unicode="&#x13e;" horiz-adv-x="849" d="M23 1329v2q0 10 32.5 28.5t218.5 113.5q12 8 25 8q29 0 29 -39v-1297q0 -25 5 -38t16 -19t31.5 -9t51.5 -9q35 -6 35 -41q0 -41 -25 -41l-28 4q-27 2 -73 5t-91 3q-43 0 -87 -2t-71 -6l-26 -2q-29 0 -29 37v6q0 27 12 33t72 12q37 4 47 22.5t10 55.5v1042q0 14 -4 22.5 t-15.5 13.5t-27.5 15q-61 35 -84.5 50.5t-23.5 29.5zM498 1368q0 47 37.5 80t87.5 33q74 0 127 -69t53 -167q0 -119 -78 -194.5t-129 -75.5q-39 0 -39 35q0 16 10.5 25t35 23.5t42.5 31.5q53 49 53 96q0 35 -22.5 53t-50 21.5t-61.5 16.5t-50 38q-16 22 -16 53z" />
<glyph unicode="&#x143;" horiz-adv-x="1636" d="M18 1341q0 53 45 54h252q49 0 82 -39l322 -373l186 -209l265 -288q87 -93 107.5 -113.5t29.5 -20.5q14 0 14 21q4 147 4 219q0 309 -18 610q-2 61 -29 76.5t-104 24.5q-45 6 -46 43q0 18 14.5 33.5t45.5 15.5q4 0 29.5 -1t69.5 -3t97 -2q51 0 95.5 2t69 3t28.5 1 q43 0 43 -47q0 -35 -28.5 -44.5t-64.5 -5t-64.5 -23.5t-28.5 -95q-8 -369 -9 -555q0 -152 2.5 -282t4.5 -203.5t2 -90.5q0 -96 -41 -96q-25 0 -101 86l-424 483q-449 500 -454 500l-8 -8q-27 -389 -27 -727v-60q0 -82 14.5 -105.5t77.5 -27.5q74 0 125 -14q27 -14 27 -53 t-35 -39l-35 4l-96 5q-59 3 -118.5 3t-120 -3t-95.5 -5l-37 -4q-43 0 -43 41q0 43 31 53q12 4 54 7t73.5 15.5t46.5 42.5q6 12 9 50.5t14 248.5l34 664v6v2q0 29 -67 90q-80 80 -183 88q-37 0 -37 45zM639 1532q0 27 39 53l283 205q61 47 104 47q33 0 57.5 -21.5t24.5 -52.5 q0 -27 -18.5 -49t-28.5 -27.5l-37 -19.5q-371 -176 -383 -176q-16 0 -28.5 11.5t-12.5 29.5z" />
<glyph unicode="&#x144;" horiz-adv-x="1021" d="M23 25q0 29 12 35t67 14q35 6 44.5 21.5t9.5 47.5v490q0 35 -10.5 48t-82.5 67q-12 12 -12 20v2q0 10 25.5 25.5t169.5 91.5q12 8 20 8q25 0 25 -31v-80v-6l-2 -6q0 -8 6 -8h2l22 18l55 42t87 43.5t117 19.5h4q41 0 82 -11.5t89 -40t79.5 -91t39.5 -152.5q4 -35 5 -105 v-38q0 -31 -1.5 -111t-1.5 -205v-4q0 -20 5.5 -32.5t17.5 -17.5t30.5 -7t45.5 -6q29 -4 28 -37q0 -41 -30 -41q-6 0 -27.5 3t-60.5 6t-84 3q-41 0 -81 -3t-63 -5l-24 -4q-29 0 -29 41q0 18 9.5 25t33 11.5t64.5 10.5q33 4 32 49v317q0 156 -26 222q-29 68 -90.5 95 t-114.5 27q-80 0 -141.5 -48t-69.5 -85q-2 -8 -2 -26v-486v-6q0 -51 45 -57q43 -6 67.5 -10.5t34 -13.5t9.5 -31q0 -37 -27 -37l-29 4q-27 4 -71.5 7t-89.5 3q-43 0 -86.5 -3t-67.5 -5l-27 -4q-32 0 -32 37zM311 1018q0 14 9.5 30.5t56.5 87.5l149 220q55 86 113 86 q31 0 53.5 -21.5t22.5 -54.5q0 -39 -49 -92q-266 -272 -285 -287q-14 -10 -31 -10q-18 0 -28.5 12.5t-10.5 28.5z" />
<glyph unicode="&#x145;" horiz-adv-x="1636" d="M18 1341q0 53 45 54h252q49 0 82 -39l322 -373l186 -209l265 -288q87 -93 107.5 -113.5t29.5 -20.5q14 0 14 21q4 147 4 219q0 309 -18 610q-2 61 -29 76.5t-104 24.5q-45 6 -46 43q0 18 14.5 33.5t45.5 15.5q4 0 29.5 -1t69.5 -3t97 -2q51 0 95.5 2t69 3t28.5 1 q43 0 43 -47q0 -35 -28.5 -44.5t-64.5 -5t-64.5 -23.5t-28.5 -95q-8 -369 -9 -555q0 -152 2.5 -282t4.5 -203.5t2 -90.5q0 -96 -41 -96q-25 0 -101 86l-424 483q-449 500 -454 500l-8 -8q-27 -389 -27 -727v-60q0 -82 14.5 -105.5t77.5 -27.5q74 0 125 -14q27 -14 27 -53 t-35 -39l-35 4l-96 5q-59 3 -118.5 3t-120 -3t-95.5 -5l-37 -4q-43 0 -43 41q0 43 31 53q12 4 54 7t73.5 15.5t46.5 42.5q6 12 9 50.5t14 248.5l34 664v6v2q0 29 -67 90q-80 80 -183 88q-37 0 -37 45zM666 -240q0 47 37.5 80t87.5 33q74 0 127 -68.5t53 -166.5 q0 -119 -78 -195t-129 -76q-39 0 -39 35q0 16 10 25.5t35 23.5t43 31q53 49 53 96q0 35 -22.5 53.5t-50 21.5t-61.5 16.5t-50 37.5q-16 22 -16 53z" />
<glyph unicode="&#x146;" horiz-adv-x="1021" d="M23 25q0 29 12 35t67 14q35 6 44.5 21.5t9.5 47.5v490q0 35 -10.5 48t-82.5 67q-12 12 -12 20v2q0 10 25.5 25.5t169.5 91.5q12 8 20 8q25 0 25 -31v-80v-6l-2 -6q0 -8 6 -8h2l22 18l55 42t87 43.5t117 19.5h4q41 0 82 -11.5t89 -40t79.5 -91t39.5 -152.5q4 -35 5 -105 v-38q0 -31 -1.5 -111t-1.5 -205v-4q0 -20 5.5 -32.5t17.5 -17.5t30.5 -7t45.5 -6q29 -4 28 -37q0 -41 -30 -41q-6 0 -27.5 3t-60.5 6t-84 3q-41 0 -81 -3t-63 -5l-24 -4q-29 0 -29 41q0 18 9.5 25t33 11.5t64.5 10.5q33 4 32 49v317q0 156 -26 222q-29 68 -90.5 95 t-114.5 27q-80 0 -141.5 -48t-69.5 -85q-2 -8 -2 -26v-486v-6q0 -51 45 -57q43 -6 67.5 -10.5t34 -13.5t9.5 -31q0 -37 -27 -37l-29 4q-27 4 -71.5 7t-89.5 3q-43 0 -86.5 -3t-67.5 -5l-27 -4q-32 0 -32 37zM360 -209q0 47 38 80t87 33q74 0 127.5 -68.5t53.5 -167.5 q0 -119 -78 -194.5t-129 -75.5q-39 0 -39 35q0 16 10 25.5t34.5 23.5t43.5 31q53 49 53 96q0 35 -22.5 53.5t-50 21.5t-61.5 16t-50 38q-17 22 -17 53z" />
<glyph unicode="&#x147;" horiz-adv-x="1636" d="M18 1341q0 53 45 54h252q49 0 82 -39l322 -373l186 -209l265 -288q87 -93 107.5 -113.5t29.5 -20.5q14 0 14 21q4 147 4 219q0 309 -18 610q-2 61 -29 76.5t-104 24.5q-45 6 -46 43q0 18 14.5 33.5t45.5 15.5q4 0 29.5 -1t69.5 -3t97 -2q51 0 95.5 2t69 3t28.5 1 q43 0 43 -47q0 -35 -28.5 -44.5t-64.5 -5t-64.5 -23.5t-28.5 -95q-8 -369 -9 -555q0 -152 2.5 -282t4.5 -203.5t2 -90.5q0 -96 -41 -96q-25 0 -101 86l-424 483q-449 500 -454 500l-8 -8q-27 -389 -27 -727v-60q0 -82 14.5 -105.5t77.5 -27.5q74 0 125 -14q27 -14 27 -53 t-35 -39l-35 4l-96 5q-59 3 -118.5 3t-120 -3t-95.5 -5l-37 -4q-43 0 -43 41q0 43 31 53q12 4 54 7t73.5 15.5t46.5 42.5q6 12 9 50.5t14 248.5l34 664v6v2q0 29 -67 90q-80 80 -183 88q-37 0 -37 45zM569 1769q0 10 8.5 20.5t24.5 10.5q25 0 53 -28l84 -73q31 -26 47.5 -36 t30.5 -10q27 0 111 73.5t108 73.5q12 0 21.5 -8t9.5 -20.5t-21 -39.5l-155 -192q-37 -49 -78 -49q-25 0 -51 29l-165 202q-28 35 -28 47z" />
<glyph unicode="&#x148;" horiz-adv-x="1021" d="M23 25q0 29 12 35t67 14q35 6 44.5 21.5t9.5 47.5v490q0 35 -10.5 48t-82.5 67q-12 12 -12 20v2q0 10 25.5 25.5t169.5 91.5q12 8 20 8q25 0 25 -31v-80v-6l-2 -6q0 -8 6 -8h2l22 18l55 42t87 43.5t117 19.5h4q41 0 82 -11.5t89 -40t79.5 -91t39.5 -152.5q4 -35 5 -105 v-38q0 -31 -1.5 -111t-1.5 -205v-4q0 -20 5.5 -32.5t17.5 -17.5t30.5 -7t45.5 -6q29 -4 28 -37q0 -41 -30 -41q-6 0 -27.5 3t-60.5 6t-84 3q-41 0 -81 -3t-63 -5l-24 -4q-29 0 -29 41q0 18 9.5 25t33 11.5t64.5 10.5q33 4 32 49v317q0 156 -26 222q-29 68 -90.5 95 t-114.5 27q-80 0 -141.5 -48t-69.5 -85q-2 -8 -2 -26v-486v-6q0 -51 45 -57q43 -6 67.5 -10.5t34 -13.5t9.5 -31q0 -37 -27 -37l-29 4q-27 4 -71.5 7t-89.5 3q-43 0 -86.5 -3t-67.5 -5l-27 -4q-32 0 -32 37zM326 1397q0 16 10 24.5t20 8.5q25 0 54 -48l48 -83q34 -58 34 -60 q8 -10 20 -10t20.5 9t28.5 44l60 102q27 45 49 46q31 0 30 -31q0 -12 -51 -159.5t-76 -203.5q-25 -59 -59 -59q-27 0 -51.5 42t-53.5 131l-77 224q-6 19 -6 23z" />
<glyph unicode="&#x14e;" horiz-adv-x="1593" d="M37 723q0 311 223 531.5t533 220.5q324 0 543.5 -232.5t219.5 -552.5q0 -317 -215 -528t-520 -211q-150 0 -294 58.5t-253 162.5q-233 225 -237 551zM231 786q0 -184 62.5 -342.5t199 -266t320.5 -107.5q74 0 146.5 18t144.5 63.5t127 111t89 165.5t34 225 q0 164 -54.5 318.5t-171.5 257.5q-156 137 -368.5 137t-370.5 -148.5t-158 -431.5zM498 1743q0 14 15 29.5t34 15.5q6 0 42 -35t92 -69.5t115.5 -34.5t117 34.5t92 69.5t41.5 35q16 0 33.5 -15.5t17.5 -29.5q0 -10 -36 -62.5t-109.5 -108.5t-151.5 -56h-8q-78 0 -151 56 t-108.5 108.5t-35.5 62.5z" />
<glyph unicode="&#x14f;" horiz-adv-x="956" d="M43 418q0 207 131 337t311 130q184 0 306 -131t122 -336q0 -211 -127 -334t-309 -123q-193 0 -313.5 132t-120.5 325zM203 428q0 -162 77.5 -264.5t202.5 -102.5q127 0 209 103.5t82 245.5q0 160 -91 269t-212 109q-100 0 -184 -88t-84 -272zM229 1270v6q0 20 45 20 q14 0 20.5 -8t8.5 -22.5t12.5 -40t30.5 -51.5q55 -70 123 -70h2q35 0 65.5 16.5t53 43t37 49t24.5 44.5l13 23q10 14 24 14q37 0 37 -14q0 -12 -13.5 -57t-41 -105.5t-84 -106.5t-125.5 -46q-181 0 -232 305z" />
<glyph unicode="&#x152;" horiz-adv-x="2084" d="M37 723q0 309 222 530.5t532 221.5q82 0 164.5 -14.5t127.5 -24.5q55 -10 134 -15l75 -6h625q31 0 41 -33l57 -258v-6q0 -43 -49 -43q-18 0 -28.5 7.5t-12.5 16.5t-6 17l-88 150q-16 27 -26.5 34t-35.5 7h-397q-29 0 -46 -14.5t-17 -35.5v-337q0 -45 30 -46h324 q23 0 37 3.5t27.5 18.5t13.5 46v64q0 23 16.5 35t36.5 12q59 0 59 -62v-377q0 -59 -55 -59q-57 0 -57 45v111q0 45 -53 45h-230q-100 0 -125.5 -13.5t-25.5 -68.5v-475q0 -33 13 -48.5t69.5 -26.5t171.5 -11q70 0 169 11t128 32q10 8 116 190q18 35 45 35q35 0 35 -47v-2 q0 -8 -61 -291q-6 -27 -20.5 -34t-45.5 -7h-569q-180 0 -344 -24.5t-193 -24.5q-322 0 -553 227.5t-231 544.5zM229 786q0 -135 38 -262t108.5 -229t184.5 -163.5t253 -61.5q156 0 279 75q23 12 26.5 21.5t3.5 46.5v1018q-152 135 -362 135h-2q-211 0 -370 -148.5 t-159 -431.5z" />
<glyph unicode="&#x153;" horiz-adv-x="1562" d="M43 418q0 207 131 337t311 130q106 0 200.5 -51.5t154.5 -143.5q47 84 129 138.5t186 54.5q100 0 195.5 -56.5t154.5 -140.5q18 -23 19 -45v-2q-2 -39 -62.5 -66.5t-105.5 -35.5q-315 -106 -374.5 -128t-59.5 -34q0 -18 12 -58.5t41 -97.5t94.5 -99t155.5 -42 q139 0 243 100q23 29 48 29q33 0 32 -31q0 -16 -14 -33q-63 -84 -159.5 -133t-203.5 -49q-111 0 -196.5 51t-134.5 135q-57 -88 -154.5 -137t-208.5 -49q-193 0 -313.5 132t-120.5 325zM203 428q0 -162 77.5 -264.5t202.5 -102.5q127 0 209 103.5t82 245.5q0 160 -91 269 t-212 109q-100 0 -184 -88t-84 -272zM913 477q0 -14 11 -14q2 0 190.5 72.5t192.5 74.5q18 8 18 25q0 27 -69.5 81t-145.5 54q-90 0 -143.5 -79t-53.5 -214z" />
<glyph unicode="&#x154;" horiz-adv-x="1425" d="M29 1343q0 39 26 39h72q96 0 243.5 12.5t209.5 12.5q131 0 229 -35t149.5 -91t75 -113.5t23.5 -116.5q0 -133 -82 -223.5t-152 -116.5q-10 -6 -10 -10.5t4 -8.5q147 -174 255 -341t124 -185q57 -66 111 -66q31 0 54 22.5t34 22.5q20 0 20 -22q0 -37 -50 -93.5t-128 -56.5 q-104 0 -217 150l-205 291q-176 246 -188 254q-10 8 -35 8h-150q-29 0 -28 -31v-473v-6q0 -59 53 -66q68 -6 109.5 -9t59 -15.5t17.5 -42.5q0 -45 -41 -45l-39 4q-37 2 -99 5t-125.5 3t-126 -3t-99.5 -5l-37 -4q-37 0 -37 55q0 23 12.5 32t40 11t74.5 6q35 4 45 20.5 t10 51.5v1059q0 25 -7 38t-25.5 21t-52 13t-87.5 16q-30 5 -30 32zM403 1274l3 -2v-4v-482q0 -27 20 -31.5t115 -4.5q115 0 188 28q72 29 120 90.5t48 147.5q0 125 -103.5 218t-254.5 93q-96 0 -123 -20q-13 -8 -13 -33zM469 1532q0 27 39 53l283 205q61 47 104 47 q33 0 57.5 -21.5t24.5 -52.5q0 -27 -18.5 -49t-28.5 -27.5l-37 -19.5q-371 -176 -383 -176q-16 0 -28.5 11.5t-12.5 29.5z" />
<glyph unicode="&#x155;" horiz-adv-x="733" d="M25 23q0 31 25.5 39t66.5 12q37 8 37 49v543q0 27 -20.5 43t-92.5 65q-6 6 -8 14q0 6 27 20l188 91l18 6q25 0 25 -41v-82q0 -10 6 -10q2 0 91 60.5t122 72.5q25 8 59 8q55 0 107.5 -25.5t52.5 -64.5v-2q-2 -23 -22.5 -44t-32.5 -27q-12 -10 -37 -25.5t-47 -15.5 q-25 0 -55.5 25.5t-65.5 25.5q-43 0 -94 -32t-66 -52q-8 -12 -8 -37v-492v-8q0 -57 51 -61q59 -4 93 -7t45.5 -11.5t11.5 -30.5q0 -41 -29 -41l-31 4q-29 2 -78 5t-98 3q-51 0 -101 -3t-79 -5l-29 -4q-32 0 -32 35zM174 1038q0 14 9.5 30.5t56.5 87.5l149 220q55 86 113 86 q31 0 53.5 -21.5t22.5 -54.5q0 -39 -50 -92q-266 -272 -284 -286q-14 -10 -31 -11q-18 0 -28.5 12.5t-10.5 28.5z" />
<glyph unicode="&#x156;" horiz-adv-x="1425" d="M29 1343q0 39 26 39h72q96 0 243.5 12.5t209.5 12.5q131 0 229 -35t149.5 -91t75 -113.5t23.5 -116.5q0 -133 -82 -223.5t-152 -116.5q-10 -6 -10 -10.5t4 -8.5q147 -174 255 -341t124 -185q57 -66 111 -66q31 0 54 22.5t34 22.5q20 0 20 -22q0 -37 -50 -93.5t-128 -56.5 q-104 0 -217 150l-205 291q-176 246 -188 254q-10 8 -35 8h-150q-29 0 -28 -31v-473v-6q0 -59 53 -66q68 -6 109.5 -9t59 -15.5t17.5 -42.5q0 -45 -41 -45l-39 4q-37 2 -99 5t-125.5 3t-126 -3t-99.5 -5l-37 -4q-37 0 -37 55q0 23 12.5 32t40 11t74.5 6q35 4 45 20.5 t10 51.5v1059q0 25 -7 38t-25.5 21t-52 13t-87.5 16q-30 5 -30 32zM403 1274l3 -2v-4v-482q0 -27 20 -31.5t115 -4.5q115 0 188 28q72 29 120 90.5t48 147.5q0 125 -103.5 218t-254.5 93q-96 0 -123 -20q-13 -8 -13 -33zM569 -221q0 47 38 79.5t87 32.5q74 0 127 -68.5 t53 -166.5q0 -119 -77.5 -194.5t-128.5 -75.5q-39 0 -39 34q0 16 10 25.5t34.5 24t43.5 30.5q53 49 53 97q0 35 -22.5 53t-50 21t-61.5 16.5t-50 38.5q-17 22 -17 53z" />
<glyph unicode="&#x157;" horiz-adv-x="733" d="M25 23q0 31 25.5 39t66.5 12q37 8 37 49v543q0 27 -20.5 43t-92.5 65q-6 6 -8 14q0 6 27 20l188 91l18 6q25 0 25 -41v-82q0 -10 6 -10q2 0 91 60.5t122 72.5q25 8 59 8q55 0 107.5 -25.5t52.5 -64.5v-2q-2 -23 -22.5 -44t-32.5 -27q-12 -10 -37 -25.5t-47 -15.5 q-25 0 -55.5 25.5t-65.5 25.5q-43 0 -94 -32t-66 -52q-8 -12 -8 -37v-492v-8q0 -57 51 -61q59 -4 93 -7t45.5 -11.5t11.5 -30.5q0 -41 -29 -41l-31 4q-29 2 -78 5t-98 3q-51 0 -101 -3t-79 -5l-29 -4q-32 0 -32 35zM223 -207q0 47 38 80t87 33q74 0 127 -68.5t53 -167.5 q0 -119 -77.5 -194.5t-128.5 -75.5q-39 0 -39 35q0 16 10 25.5t34.5 23.5t43.5 31q53 49 53 96q0 35 -22.5 53.5t-50 21.5t-61.5 16t-50 38q-17 22 -17 53z" />
<glyph unicode="&#x158;" horiz-adv-x="1425" d="M29 1343q0 39 26 39h72q96 0 243.5 12.5t209.5 12.5q131 0 229 -35t149.5 -91t75 -113.5t23.5 -116.5q0 -133 -82 -223.5t-152 -116.5q-10 -6 -10 -10.5t4 -8.5q147 -174 255 -341t124 -185q57 -66 111 -66q31 0 54 22.5t34 22.5q20 0 20 -22q0 -37 -50 -93.5t-128 -56.5 q-104 0 -217 150l-205 291q-176 246 -188 254q-10 8 -35 8h-150q-29 0 -28 -31v-473v-6q0 -59 53 -66q68 -6 109.5 -9t59 -15.5t17.5 -42.5q0 -45 -41 -45l-39 4q-37 2 -99 5t-125.5 3t-126 -3t-99.5 -5l-37 -4q-37 0 -37 55q0 23 12.5 32t40 11t74.5 6q35 4 45 20.5 t10 51.5v1059q0 25 -7 38t-25.5 21t-52 13t-87.5 16q-30 5 -30 32zM350 1769q0 10 8.5 20.5t24.5 10.5q25 0 53 -28l84 -73q31 -26 47.5 -36t30.5 -10q27 0 111 73.5t108 73.5q12 0 21.5 -8t9.5 -20.5t-23 -39.5l-153 -192q-37 -49 -78 -49q-25 0 -51 29l-165 202 q-28 35 -28 47zM403 1274l3 -2v-4v-482q0 -27 20 -31.5t115 -4.5q115 0 188 28q72 29 120 90.5t48 147.5q0 125 -103.5 218t-254.5 93q-96 0 -123 -20q-13 -8 -13 -33z" />
<glyph unicode="&#x159;" horiz-adv-x="733" d="M25 23q0 31 25.5 39t66.5 12q37 8 37 49v543q0 27 -20.5 43t-92.5 65q-6 6 -8 14q0 6 27 20l188 91l18 6q25 0 25 -41v-82q0 -10 6 -10q2 0 91 60.5t122 72.5q25 8 59 8q55 0 107.5 -25.5t52.5 -64.5v-2q-2 -23 -22.5 -44t-32.5 -27q-12 -10 -37 -25.5t-47 -15.5 q-25 0 -55.5 25.5t-65.5 25.5q-43 0 -94 -32t-66 -52q-8 -12 -8 -37v-492v-8q0 -57 51 -61q59 -4 93 -7t45.5 -11.5t11.5 -30.5q0 -41 -29 -41l-31 4q-29 2 -78 5t-98 3q-51 0 -101 -3t-79 -5l-29 -4q-32 0 -32 35zM188 1415q0 16 10.5 24.5t20.5 8.5q25 0 53 -47l49 -83 q34 -58 33 -61q8 -10 20.5 -10t20.5 9.5t29 43.5l59 103q27 45 49 45q31 0 31 -31q0 -12 -51 -159.5t-76 -202.5q-25 -59 -59 -60q-27 0 -51.5 42t-54.5 131l-76 225q-7 18 -7 22z" />
<glyph unicode="&#x15a;" horiz-adv-x="1007" d="M51 131q0 6 7.5 41t19.5 112.5t20 180.5q4 43 45 43q31 0 39 -19.5t19 -99.5q6 -102 8 -109.5t45 -64.5q100 -135 264 -135q123 0 210 83t87 202q0 139 -119 225q-70 49 -208 84t-179 51q-121 47 -182 136t-61 196q0 141 104 243.5t262 102.5q74 0 133.5 -20.5t91 -41 t39.5 -20.5q12 0 36 41t50 41q33 0 33 -39q0 -4 -2 -25.5t-4 -60.5t-2 -84t2 -82t4 -58.5t2 -25.5q0 -31 -35 -31h-2q-29 0 -42 21.5t-36.5 72t-62.5 95.5q-102 115 -225 114q-86 0 -142.5 -56t-56.5 -136q0 -113 104 -186q63 -45 204 -80t186 -54q117 -49 187.5 -148 t70.5 -234q0 -184 -130 -312.5t-319 -128.5q-182 0 -311 113q-33 29 -64 28q-10 0 -27.5 -3t-25.5 -3q-37 0 -37 31zM254 1532q0 27 39 53l282 205q61 47 105 47q33 0 57.5 -21.5t24.5 -52.5q0 -27 -18.5 -49t-28.5 -27.5l-37 -19.5q-371 -176 -383 -176q-16 0 -28.5 11.5 t-12.5 29.5z" />
<glyph unicode="&#x15b;" horiz-adv-x="692" d="M53 256q0 39 7.5 51t30 12t27.5 -18t7 -52t12 -56q18 -39 86 -80t148 -41q70 0 118 37.5t48 99t-49.5 101.5t-103.5 49.5t-93 23.5q-227 66 -228 250q0 96 81 168.5t214 72.5q27 0 50.5 -3t37 -5t15.5 -2q8 0 23.5 10.5t27.5 10.5q25 0 33 -39l22 -122q16 -89 17 -93 q0 -33 -47 -33q-18 0 -28.5 15.5t-19 43t-18.5 41.5q-23 31 -72 55.5t-96 24.5q-53 0 -91 -30.5t-38 -77.5q0 -102 162 -148q70 -12 148.5 -38.5t127.5 -84.5q61 -72 62 -161q0 -106 -84 -191.5t-228 -85.5q-78 0 -159.5 26.5t-122.5 75.5q-25 27 -25 70q0 31 -1 72t-1 51z M162 1008q0 14 9 30.5t56 86.5l150 221q55 86 112 86q31 0 53.5 -21.5t22.5 -54.5q0 -39 -49 -92q-266 -272 -285 -287q-14 -10 -30 -10q-18 0 -28.5 12.5t-10.5 28.5z" />
<glyph unicode="&#x15c;" horiz-adv-x="1007" d="M51 131q0 6 7.5 41t19.5 112.5t20 180.5q4 43 45 43q31 0 39 -19.5t19 -99.5q6 -102 8 -109.5t45 -64.5q100 -135 264 -135q123 0 210 83t87 202q0 139 -119 225q-70 49 -208 84t-179 51q-121 47 -182 136t-61 196q0 141 104 243.5t262 102.5q74 0 133.5 -20.5t91 -41 t39.5 -20.5q12 0 36 41t50 41q33 0 33 -39q0 -4 -2 -25.5t-4 -60.5t-2 -84t2 -82t4 -58.5t2 -25.5q0 -31 -35 -31h-2q-29 0 -42 21.5t-36.5 72t-62.5 95.5q-102 115 -225 114q-86 0 -142.5 -56t-56.5 -136q0 -113 104 -186q63 -45 204 -80t186 -54q117 -49 187.5 -148 t70.5 -234q0 -184 -130 -312.5t-319 -128.5q-182 0 -311 113q-33 29 -64 28q-10 0 -27.5 -3t-25.5 -3q-37 0 -37 31zM260 1520q0 12 22 40l154 191q37 49 78 49q25 0 51 -28l168 -206t25 -44q0 -10 -8.5 -20.5t-24.5 -10.5q-25 0 -53 29l-113 94q-31 25 -49 24 q-27 0 -111 -73.5t-108 -73.5q-31 0 -31 29z" />
<glyph unicode="&#x15d;" horiz-adv-x="692" d="M53 256q0 39 7.5 51t30 12t27.5 -18t7 -52t12 -56q18 -39 86 -80t148 -41q70 0 118 37.5t48 99t-49.5 101.5t-103.5 49.5t-93 23.5q-227 66 -228 250q0 96 81 168.5t214 72.5q27 0 50.5 -3t37 -5t15.5 -2q8 0 23.5 10.5t27.5 10.5q25 0 33 -39l22 -122q16 -89 17 -93 q0 -33 -47 -33q-18 0 -28.5 15.5t-19 43t-18.5 41.5q-23 31 -72 55.5t-96 24.5q-53 0 -91 -30.5t-38 -77.5q0 -102 162 -148q70 -12 148.5 -38.5t127.5 -84.5q61 -72 62 -161q0 -106 -84 -191.5t-228 -85.5q-78 0 -159.5 26.5t-122.5 75.5q-25 27 -25 70q0 31 -1 72t-1 51z M176 997q0 12 50 159t77 204q25 59 59 59q27 0 51.5 -42t54.5 -131l77 -224q6 -18 6 -23q0 -16 -10.5 -24t-20.5 -8q-25 0 -53 47l-58 103q-19 34 -26.5 42t-17.5 8q-12 0 -20.5 -9t-29.5 -44l-59 -104q-27 -43 -49 -43q-31 -1 -31 30z" />
<glyph unicode="&#x15e;" horiz-adv-x="1007" d="M51 131q0 6 7.5 41t19.5 112.5t20 180.5q4 43 45 43q31 0 39 -19.5t19 -99.5q6 -102 8 -109.5t45 -64.5q100 -135 264 -135q123 0 210 83t87 202q0 139 -119 225q-70 49 -208 84t-179 51q-121 47 -182 136t-61 196q0 141 104 243.5t262 102.5q74 0 133.5 -20.5t91 -41 t39.5 -20.5q12 0 36 41t50 41q33 0 33 -39q0 -4 -2 -25.5t-4 -60.5t-2 -84t2 -82t4 -58.5t2 -25.5q0 -31 -35 -31h-2q-29 0 -42 21.5t-36.5 72t-62.5 95.5q-102 115 -225 114q-86 0 -142.5 -56t-56.5 -136q0 -113 104 -186q63 -45 204 -80t186 -54q117 -49 187.5 -148 t70.5 -234q0 -172 -121 -302.5t-307 -138.5q-6 -23 -11.5 -34t-5.5 -13q0 -6 8 -6h7q76 0 124 -41t48 -115v-2q0 -61 -39 -107t-129 -46q-45 0 -100.5 10t-61.5 16q-8 6 -8 14.5t7 29t21 20.5l19 -4q18 -4 44.5 -8.5t43.5 -4.5q35 0 56.5 18.5t21.5 47.5q0 41 -41 71.5 t-105 34.5q-10 0 -10 7q0 2 18 50l25 64q-80 8 -143.5 36t-106.5 61.5t-45 33.5q-14 8 -33 8q-10 0 -27.5 -3t-25.5 -3q-37 0 -37 31z" />
<glyph unicode="&#x15f;" horiz-adv-x="692" d="M55 133v80v60q0 24 7.5 35t27.5 11q23 0 28 -18t7 -52t12 -56q18 -39 86 -80t148 -41q70 0 118 37.5t48 99t-49.5 101.5t-103.5 49.5t-93 23.5q-227 66 -228 250q0 96 81 168.5t214 72.5q27 0 50.5 -3t37 -5t15.5 -2q8 0 23.5 10.5t27.5 10.5q25 0 33 -39l22 -122 q16 -89 17 -93q0 -33 -47 -33q-18 0 -28.5 15.5t-19 43t-18.5 41.5q-23 31 -72 55.5t-96 24.5q-53 0 -91 -30.5t-38 -77.5q0 -102 162 -148q70 -12 148.5 -38.5t127.5 -84.5q61 -72 62 -161q0 -106 -84 -191.5t-228 -85.5h-8q-14 -41 -14 -43q0 -6 8 -6h6q76 0 124 -41 t48 -115v-2q0 -61 -38.5 -107t-129.5 -46q-45 0 -100 10t-61 16q-8 6 -8.5 14.5t7 29t21.5 20.5l19 -4q18 -4 44.5 -8.5t43.5 -4.5q35 0 56 18.5t21 47.5q0 41 -41 71.5t-104 34.5q-10 0 -10 7q0 2 18 50l25 64q-70 10 -141.5 44t-88.5 85q-4 12 -4 37z" />
<glyph unicode="&#x160;" horiz-adv-x="1007" d="M51 131q0 6 7.5 41t19.5 112.5t20 180.5q4 43 45 43q31 0 39 -19.5t19 -99.5q6 -102 8 -109.5t45 -64.5q100 -135 264 -135q123 0 210 83t87 202q0 139 -119 225q-70 49 -208 84t-179 51q-121 47 -182 136t-61 196q0 141 104 243.5t262 102.5q74 0 133.5 -20.5t91 -41 t39.5 -20.5q12 0 36 41t50 41q33 0 33 -39q0 -4 -2 -25.5t-4 -60.5t-2 -84t2 -82t4 -58.5t2 -25.5q0 -31 -35 -31h-2q-29 0 -42 21.5t-36.5 72t-62.5 95.5q-102 115 -225 114q-86 0 -142.5 -56t-56.5 -136q0 -113 104 -186q63 -45 204 -80t186 -54q117 -49 187.5 -148 t70.5 -234q0 -184 -130 -312.5t-319 -128.5q-182 0 -311 113q-33 29 -64 28q-10 0 -27.5 -3t-25.5 -3q-37 0 -37 31zM260 1769q0 10 8 20.5t25 10.5q25 0 53 -28l84 -73q31 -26 47.5 -36t30.5 -10q27 0 110.5 73.5t108.5 73.5q12 0 21.5 -8t9.5 -20.5t-23 -39.5l-153 -192 q-37 -49 -78 -49q-25 0 -51 29l-165 202q-28 35 -28 47z" />
<glyph unicode="&#x161;" horiz-adv-x="692" d="M53 256q0 39 7.5 51t30 12t27.5 -18t7 -52t12 -56q18 -39 86 -80t148 -41q70 0 118 37.5t48 99t-49.5 101.5t-103.5 49.5t-93 23.5q-227 66 -228 250q0 96 81 168.5t214 72.5q27 0 50.5 -3t37 -5t15.5 -2q8 0 23.5 10.5t27.5 10.5q25 0 33 -39l22 -122q16 -89 17 -93 q0 -33 -47 -33q-18 0 -28.5 15.5t-19 43t-18.5 41.5q-23 31 -72 55.5t-96 24.5q-53 0 -91 -30.5t-38 -77.5q0 -102 162 -148q70 -12 148.5 -38.5t127.5 -84.5q61 -72 62 -161q0 -106 -84 -191.5t-228 -85.5q-78 0 -159.5 26.5t-122.5 75.5q-25 27 -25 70q0 31 -1 72t-1 51z M176 1386q0 16 10.5 24.5t20.5 8.5q25 0 53 -47l48 -83q34 -58 34 -60q8 -10 20.5 -10t20.5 9t29 44l59 102q27 45 49 45q31 0 31 -30q0 -12 -51 -160t-76 -203q-25 -59 -59 -59q-27 0 -51.5 42t-54.5 131l-77 224q-6 18 -6 22z" />
<glyph unicode="&#x162;" horiz-adv-x="1417" d="M25 1094v2q0 8 59 282q6 31 43 31h1194q23 0 30 -11.5t11 -35.5q49 -250 49 -262q0 -18 -11 -31.5t-28 -13.5q-25 0 -47 39q-45 82 -69.5 121.5t-39 49t-47.5 9.5h-301q-45 0 -45 -55v-1074q0 -27 13.5 -36t54.5 -13t119 -10q25 -2 31 -13.5t6 -43.5q0 -41 -35 -41l-37 4 q-39 2 -102.5 5t-127.5 3q-29 -80 -28 -82q0 -6 8 -6h6q76 0 124 -41t48 -115v-2q0 -61 -39 -107t-129 -46q-45 0 -100 10t-62 16q-8 6 -8 14.5t7.5 29t21.5 20.5l18 -4q18 -4 45 -8.5t43 -4.5q35 0 56.5 18.5t21.5 47.5q0 41 -41 71.5t-104 34.5q-10 0 -10 7q0 10 57 147 q-82 -2 -154 -8l-71 -4q-41 0 -41 53q0 25 10 34t44 13t95 8q43 4 56.5 22.5t13.5 53.5v1038q0 63 -55 64h-306q-39 0 -52 -8.5t-25 -32.5q-59 -125 -79 -158t-46 -33q-20 0 -32.5 14.5t-12.5 37.5z" />
<glyph unicode="&#x163;" horiz-adv-x="681" d="M41 774q0 12 28.5 37t83 83t101.5 140q23 37 41 37q27 0 27 -33q0 -14 -1.5 -71.5t-1.5 -71.5q0 -41 41 -41h185q4 0 8 -1t8 -1q53 0 53 -39q0 -37 -18 -59q-10 -10 -37 -11h-240q-20 0 -20 -18q-2 -383 -2 -479q0 -152 104 -152q55 0 131 61.5t92.5 61.5t27 -11 t10.5 -26q0 -12 -15 -35q-150 -174 -268 -182q-4 -16 -8 -26.5t-5 -13.5t-1 -5q0 -6 8 -6h6q76 0 124 -41t48 -115v-2q0 -61 -39 -107t-129 -46q-45 0 -100.5 10t-61.5 16q-8 6 -8 14.5t7 29t22 20.5l18 -4q18 -4 45 -8.5t43 -4.5q35 0 56.5 18.5t21.5 47.5q0 41 -41 71.5 t-104 34.5q-10 0 -11 7q0 8 45 114q-143 39 -159 244q-2 23 -2 65q0 51 4 244t4 209q0 18 -15 19h-65q-41 -1 -41 26z" />
<glyph unicode="&#x164;" horiz-adv-x="1417" d="M25 1094v2q0 8 59 282q6 31 43 31h1194q23 0 30 -11.5t11 -35.5q49 -250 49 -262q0 -18 -11 -31.5t-28 -13.5q-25 0 -47 39q-45 82 -69.5 121.5t-39 49t-47.5 9.5h-301q-45 0 -45 -55v-1074q0 -27 13.5 -36t54.5 -13t119 -10q25 -2 31 -13.5t6 -43.5q0 -41 -35 -41l-41 4 q-39 2 -105.5 5t-132 3t-132 -3t-105.5 -5l-41 -4q-41 0 -41 53q0 25 10 34t44 13t95 8q43 4 56.5 22.5t13.5 53.5v1038q0 63 -55 64h-306q-39 0 -52 -8.5t-25 -32.5q-59 -125 -79 -158t-46 -33q-20 0 -32.5 14.5t-12.5 37.5zM469 1769q0 10 8 20.5t25 10.5q25 0 53 -28 l84 -73q31 -26 47 -36t31 -10q27 0 110.5 73.5t108.5 73.5q12 0 21.5 -8t9.5 -20.5t-23 -39.5l-153 -192q-37 -49 -78 -49q-25 0 -51 29l-165 202q-28 35 -28 47z" />
<glyph unicode="&#x165;" horiz-adv-x="1009" d="M41 774q0 12 28.5 37t83 83t101.5 140q23 37 41 37q27 0 27 -33q0 -14 -1.5 -71.5t-1.5 -71.5q0 -41 41 -41h185q4 0 8 -1t8 -1q53 0 53 -39q0 -37 -18 -59q-10 -10 -37 -11h-240q-20 0 -20 -18q-2 -383 -2 -479q0 -152 104 -152q55 0 131 61.5t92.5 61.5t27 -11 t10.5 -26q0 -12 -15 -35q-162 -184 -285 -184q-74 0 -135 59.5t-71 190.5q-2 23 -2 65q0 51 4 244t4 209q0 18 -15 19h-65q-41 -1 -41 26zM653 958q0 47 38 80t87 33q74 0 127 -68.5t53 -166.5q0 -119 -77.5 -195t-128.5 -76q-39 0 -39 35q0 16 10 25.5t34.5 24t43.5 30.5 q53 49 53 96q0 35 -22.5 53.5t-50 21.5t-61.5 16.5t-50 37.5q-17 22 -17 53z" />
<glyph unicode="&#x168;" horiz-adv-x="1548" d="M35 1362q0 49 41 49q4 0 68.5 -2t138.5 -4h12q57 0 106.5 2t78 3t34.5 1q39 0 39 -53q0 -35 -32 -42t-95 -11q-66 -8 -66 -72v-641q0 -137 24 -230.5t101 -162.5q123 -113 369 -113q287 0 375 186q39 80 39 228v28q0 20 -1 63.5t-1 63.5v557q0 25 -4.5 42.5t-11.5 28.5 t-18 17.5t-26.5 10.5t-35 6t-42.5 4q-45 4 -45 45q0 45 39 45q6 0 29 -1t63.5 -3t88 -2t88.5 2t63.5 3t28.5 1q37 0 37 -53q0 -25 -14.5 -33t-35 -10t-40 -10.5t-34 -41t-14.5 -92.5q0 -4 -1 -10t-1 -10v-465q0 -16 1 -48t1 -48v-66q0 -143 -34.5 -258.5t-147.5 -195.5 q-145 -100 -387 -101q-139 0 -248.5 30t-171 68.5t-106.5 95t-60.5 88.5t-25.5 68q-27 92 -27 263q0 25 1 78t1 77v516q0 20 -6 31.5t-17.5 17t-26.5 7.5t-36 4q-55 6 -55 49zM541 1522q0 6 35.5 60t56.5 75q47 47 102 47q47 0 115 -44t115 -44q41 0 75.5 23.5t55 47 t29 23.5t23.5 -8t15 -19q0 -12 -40 -59t-74 -74q-57 -45 -119 -45q-55 0 -117.5 46t-101.5 46t-72 -26.5t-50.5 -53t-21.5 -26.5q-6 0 -16 11.5t-10 19.5z" />
<glyph unicode="&#x169;" horiz-adv-x="1034" d="M14 815v6q0 27 23 29q205 12 213 12q20 0 20 -24v-420q0 -137 37 -211q29 -55 85.5 -96t131.5 -41q100 0 174 73q35 39 35 62v504q0 20 -6 32.5t-21.5 18.5t-42 11t-65.5 11q-31 6 -31 33q0 31 29 35q66 2 119 4t73.5 3t35.5 1h24q31 0 31 -41v-641q0 -16 17 -24.5 t85 -36.5q16 -6 16 -24.5t-4 -26t-18 -12.5t-33.5 -9t-60.5 -20.5t-88 -42.5q-12 -8 -23 -9q-29 0 -29 41v47q0 8 -6 9l-37 -27q-37 -25 -104.5 -51.5t-142.5 -26.5q-125 0 -210 79t-104 218q-6 61 -6 125q0 37 1 177t1 153q0 37 -55 57q-10 4 -30.5 9t-27 11.5t-6.5 22.5z M186 1180q0 6 36 60t57 75q47 47 102 47q45 0 114.5 -44t114.5 -44q41 0 76 23.5t55.5 47t28.5 23.5t23.5 -8t15.5 -19q0 -12 -40 -59t-75 -74q-57 -45 -119 -45q-55 0 -117.5 46t-101.5 46t-70.5 -26.5t-50 -53t-22.5 -26.5q-6 0 -16.5 11.5t-10.5 19.5z" />
<glyph unicode="&#x16c;" horiz-adv-x="1548" d="M35 1362q0 49 41 49q4 0 68.5 -2t138.5 -4h12q57 0 106.5 2t78 3t34.5 1q39 0 39 -53q0 -35 -32 -42t-95 -11q-66 -8 -66 -72v-641q0 -137 24 -230.5t101 -162.5q123 -113 369 -113q287 0 375 186q39 80 39 228v28q0 20 -1 63.5t-1 63.5v557q0 25 -4.5 42.5t-11.5 28.5 t-18 17.5t-26.5 10.5t-35 6t-42.5 4q-45 4 -45 45q0 45 39 45q6 0 29 -1t63.5 -3t88 -2t88.5 2t63.5 3t28.5 1q37 0 37 -53q0 -25 -14.5 -33t-35 -10t-40 -10.5t-34 -41t-14.5 -92.5q0 -4 -1 -10t-1 -10v-465q0 -16 1 -48t1 -48v-66q0 -143 -34.5 -258.5t-147.5 -195.5 q-145 -100 -387 -101q-139 0 -248.5 30t-171 68.5t-106.5 95t-60.5 88.5t-25.5 68q-27 92 -27 263q0 25 1 78t1 77v516q0 20 -6 31.5t-17.5 17t-26.5 7.5t-36 4q-55 6 -55 49zM520 1718q0 14 15.5 29.5t33.5 15.5q8 0 43 -34.5t91.5 -69.5t116 -35t116.5 35t92 69.5t41 34.5 q16 0 33.5 -15t17.5 -30q0 -10 -35.5 -62t-109.5 -108.5t-152 -56.5h-8q-78 0 -150.5 56.5t-108.5 108.5t-36 62z" />
<glyph unicode="&#x16d;" horiz-adv-x="1034" d="M14 815v6q0 27 23 29q205 12 213 12q20 0 20 -24v-420q0 -137 37 -211q29 -55 85.5 -96t131.5 -41q100 0 174 73q35 39 35 62v504q0 20 -6 32.5t-21.5 18.5t-42 11t-65.5 11q-31 6 -31 33q0 31 29 35q66 2 119 4t73.5 3t35.5 1h24q31 0 31 -41v-641q0 -16 17 -24.5 t85 -36.5q16 -6 16 -24.5t-4 -26t-18 -12.5t-33.5 -9t-60.5 -20.5t-88 -42.5q-12 -8 -23 -9q-29 0 -29 41v47q0 8 -6 9l-37 -27q-37 -25 -104.5 -51.5t-142.5 -26.5q-125 0 -210 79t-104 218q-6 61 -6 125q0 37 1 177t1 153q0 37 -55 57q-10 4 -30.5 9t-27 11.5t-6.5 22.5z M258 1270v6q0 20 45 20q14 0 20.5 -8t8.5 -22.5t12 -40t31 -51.5q55 -70 123 -70h2q35 0 65.5 16.5t53 43t37 49t24.5 44.5l12 23q10 14 25 14q37 0 37 -14q0 -12 -13.5 -57t-41 -105.5t-84 -106.5t-126.5 -46q-180 0 -231 305z" />
<glyph unicode="&#x16e;" horiz-adv-x="1548" d="M35 1362q0 49 41 49q4 0 68.5 -2t138.5 -4h12q57 0 106.5 2t78 3t34.5 1q39 0 39 -53q0 -35 -32 -42t-95 -11q-66 -8 -66 -72v-641q0 -137 24 -230.5t101 -162.5q123 -113 369 -113q287 0 375 186q39 80 39 228v28q0 20 -1 63.5t-1 63.5v557q0 25 -4.5 42.5t-11.5 28.5 t-18 17.5t-26.5 10.5t-35 6t-42.5 4q-45 4 -45 45q0 45 39 45q6 0 29 -1t63.5 -3t88 -2t88.5 2t63.5 3t28.5 1q37 0 37 -53q0 -25 -14.5 -33t-35 -10t-40 -10.5t-34 -41t-14.5 -92.5q0 -4 -1 -10t-1 -10v-465q0 -16 1 -48t1 -48v-66q0 -143 -34.5 -258.5t-147.5 -195.5 q-145 -100 -387 -101q-139 0 -248.5 30t-171 68.5t-106.5 95t-60.5 88.5t-25.5 68q-27 92 -27 263q0 25 1 78t1 77v516q0 20 -6 31.5t-17.5 17t-26.5 7.5t-36 4q-55 6 -55 49zM606 1673q0 74 51.5 127t122.5 53q74 0 124 -53t50 -127q0 -76 -51 -128t-122.5 -52t-123 52 t-51.5 128zM688 1675q0 -41 27.5 -71.5t66.5 -30.5t65.5 30.5t26.5 69.5t-27.5 71t-66.5 32t-65.5 -30t-26.5 -71z" />
<glyph unicode="&#x16f;" horiz-adv-x="1034" d="M14 815v6q0 27 23 29q205 12 213 12q20 0 20 -24v-420q0 -137 37 -211q29 -55 85.5 -96t131.5 -41q100 0 174 73q35 39 35 62v504q0 20 -6 32.5t-21.5 18.5t-42 11t-65.5 11q-31 6 -31 33q0 31 29 35q66 2 119 4t73.5 3t35.5 1h24q31 0 31 -41v-641q0 -16 17 -24.5 t85 -36.5q16 -6 16 -24.5t-4 -26t-18 -12.5t-33.5 -9t-60.5 -20.5t-88 -42.5q-12 -8 -23 -9q-29 0 -29 41v47q0 8 -6 9l-37 -27q-37 -25 -104.5 -51.5t-142.5 -26.5q-125 0 -210 79t-104 218q-6 61 -6 125q0 37 1 177t1 153q0 37 -55 57q-10 4 -30.5 9t-27 11.5t-6.5 22.5z M283 1147q0 74 51 127t123 53q74 0 124 -53t50 -127q0 -76 -51.5 -128t-123 -52t-122.5 52t-51 128zM365 1149q0 -41 27.5 -71.5t66.5 -30.5t65.5 30.5t26.5 69.5t-27.5 70.5t-66.5 31.5t-65.5 -29.5t-26.5 -70.5z" />
<glyph unicode="&#x174;" horiz-adv-x="2052" d="M27 1354q0 57 51 57q4 0 29.5 -1t69.5 -3t97 -2q51 0 94.5 2t69 3t29.5 1q37 0 37 -51q0 -27 -17.5 -36t-39 -7t-47 -2t-38.5 -19q-10 -12 -10 -26.5t6 -26.5q109 -344 320 -907q14 -37 31 -37h6q2 0 7 6t8 12.5t12 27.5l18 41l26 65l35 88l47 120l60 152q4 16 4 25v2 q0 12 -135 403q-20 57 -36 65.5t-108 12.5q-35 0 -35 45q0 47 48 47q6 0 32.5 -1t74.5 -3t104 -2h2q55 0 102 2t73.5 3t32.5 1q35 0 35 -45q0 -14 -4 -22.5t-14 -13.5t-27.5 -7t-42.5 -4q-63 -8 -63 -51q0 -6 4 -27q96 -293 220 -603t148 -345q14 -18 25 -19h2q20 0 33 37 q133 281 235.5 590t102.5 361q0 25 -15.5 36t-45 13t-74.5 8q-41 4 -41 47q0 45 37 45q6 0 32.5 -1t72.5 -3t101 -2h2q53 0 99.5 2t72 3t31.5 1q35 0 35 -47q0 -27 -17.5 -38t-41 -10t-50 -9.5t-41.5 -36.5l-53 -156q-53 -154 -172 -449.5t-266 -611.5q-45 -98 -84 -98 q-47 0 -86 108l-214 542q-32 79 -38 79q-4 0 -8 -8l-75 -195l-59 -155l-46 -119l-35 -91l-24 -62q-11 -30 -18 -43t-11 -24.5t-9.5 -15.5t-7.5 -6t-8 -4q-8 -6 -18 -6q-29 0 -49.5 40t-30.5 75q-96 233 -182.5 466.5t-132.5 374.5l-80 249q-34 108 -35 112q-14 35 -61.5 37 t-57.5 16q-10 11 -10 29zM788 1520q0 12 22 40l155 191q37 49 77 49q25 0 52 -28q143 -174 167.5 -206t24.5 -44q0 -10 -8 -20.5t-25 -10.5q-25 0 -53 29l-113 94q-31 25 -49 24q-27 0 -110.5 -73.5t-108.5 -73.5q-31 0 -31 29z" />
<glyph unicode="&#x175;" horiz-adv-x="1540" d="M12 815q0 35 37 35q4 0 23.5 -1t54.5 -3t74 -2h6q39 0 71.5 2t52 3t23.5 1q25 0 25 -35q0 -25 -19.5 -35t-44 -8t-44 -4t-19.5 -27q0 -14 12 -39q96 -256 230 -514q8 -16 20 -16q8 0 14.5 7t6.5 9q57 90 120.5 212t65.5 147v2q0 10 -35 85t-43 87q-16 27 -45 37t-51.5 9 t-40 6t-17.5 30q0 47 33 47q6 0 33 -1t75 -3t103 -2t103.5 2t75 3t32.5 1q29 0 29 -31v-12q0 -16 -5 -21.5t-32 -8.5t-82 -7q-47 -4 -47 -43q0 -33 82 -205t174 -319q16 -29 33 -29q18 0 24 19q94 166 146.5 329.5t52.5 202.5q0 23 -13.5 33t-41 12t-70.5 4q-37 4 -37 41 q0 35 25 35q4 0 24.5 -2t56 -4t78.5 -2t80 2t58.5 4t25.5 2q31 0 31 -35q0 -33 -24.5 -41t-38.5 -4q-29 -6 -47.5 -46t-36 -111.5t-87 -239.5t-180.5 -373q-27 -51 -57 -51q-14 0 -27.5 11t-30 37t-39.5 70l-61 111l-112 219q-16 33 -22.5 33t-82.5 -162 q-143 -291 -153 -301q-14 -18 -37 -18q-31 0 -60 53q-96 184 -177 362.5t-120 276.5t-41 100q-10 18 -27.5 25.5t-29.5 7.5t-22.5 9t-10.5 32zM586 995q0 12 50 158.5t77 204.5q25 59 59 59q27 0 51.5 -42t54.5 -131l76 -224q6 -18 7 -23q0 -16 -10.5 -24t-20.5 -8 q-25 0 -53 47l-59 103q-19 34 -26.5 42t-17.5 8q-12 0 -20.5 -9t-28.5 -44l-59 -104q-27 -43 -50 -43q-30 -1 -30 30z" />
<glyph unicode="&#x176;" horiz-adv-x="1366" d="M23 1366q0 45 51 45q6 0 34.5 -1t80 -3t110.5 -2t109.5 2t79 3t34.5 1q37 0 37 -41q0 -31 -11 -42t-41 -13t-81 -6q-53 -6 -53 -47v-5q0 -14 39 -83l252 -435q16 -29 28 -28q4 0 17 12l228 313q79 111 104.5 155t25.5 73q0 33 -29.5 44t-64.5 8t-64.5 8t-29.5 46 q0 41 43 41q6 0 29.5 -1t64.5 -3t88 -2h6q66 2 122 4t60 2q29 0 43.5 -13.5t14.5 -27.5q0 -23 -43 -54.5t-64 -58.5l-297 -383q-158 -209 -185.5 -248.5t-27.5 -82.5v-400q0 -25 14.5 -33t64.5 -11t146 -7q45 -2 46 -49v-16q0 -39 -33 -39l-41 4q-41 2 -110.5 5t-137.5 3 q-70 0 -139.5 -3t-110.5 -5l-41 -4q-51 0 -51 57q0 27 11 36t47 12t102 5h6q18 2 26.5 4t17.5 12.5t9 28.5v424q0 25 -4 40.5t-14 31.5l-25 41l-377 604q-20 25 -59 29t-49 24q-8 13 -8 29zM463 1520q0 12 22 40l154 191q37 49 78 49q25 0 51 -28l168 -206t25 -44 q0 -10 -8.5 -20.5t-24.5 -10.5q-25 0 -54 29l-112 94q-31 25 -49 24q-27 0 -111 -73.5t-108 -73.5q-31 0 -31 29z" />
<glyph unicode="&#x177;" horiz-adv-x="958" d="M8 815q0 35 29 35q4 0 24.5 -1t56.5 -3t79 -2t78.5 2t57 3t25.5 1q27 0 27 -33q0 -16 -3 -25.5t-11.5 -13.5t-23.5 -5t-38 -3q-31 -4 -30 -29q0 -20 65.5 -175.5t157.5 -327.5q0 -12 14 -13q8 0 16 15q2 4 5 6q168 401 168 481q0 23 -10.5 33t-33 11t-55.5 3 q-39 4 -39 39q0 37 39 37q4 0 24.5 -1t56.5 -3t79 -2h2q41 0 77 2t55.5 3t23.5 1q25 0 24 -41q0 -23 -11 -28t-69 -11q-14 -2 -19 -4t-15.5 -24.5t-19.5 -52.5t-40 -109l-67 -172q-199 -483 -367 -738q-82 -127 -152 -127q-33 0 -56 21.5t-23 52.5q0 37 26.5 63.5t76.5 58.5 t77 56q43 39 90 117t47 119q0 53 -227 508q-102 195 -112.5 209t-26 19t-25.5 5t-18.5 10t-8.5 33zM291 995q0 12 50 158.5t77 204.5q25 59 59 59q27 0 51.5 -42t54.5 -131l76 -224q6 -18 7 -23q0 -16 -10.5 -24t-20.5 -8q-25 0 -53 47l-59 103q-19 34 -26.5 42t-17.5 8 q-12 0 -20 -9t-29 -44l-59 -104q-27 -43 -49 -43q-31 -1 -31 30z" />
<glyph unicode="&#x178;" horiz-adv-x="1366" d="M23 1366q0 45 51 45q6 0 34.5 -1t80 -3t110.5 -2t109.5 2t79 3t34.5 1q37 0 37 -41q0 -31 -11 -42t-41 -13t-81 -6q-53 -6 -53 -47v-5q0 -14 39 -83l252 -435q16 -29 28 -28q4 0 17 12l228 313q79 111 104.5 155t25.5 73q0 33 -29.5 44t-64.5 8t-64.5 8t-29.5 46 q0 41 43 41q6 0 29.5 -1t64.5 -3t88 -2h6q66 2 122 4t60 2q29 0 43.5 -13.5t14.5 -27.5q0 -23 -43 -54.5t-64 -58.5l-297 -383q-158 -209 -185.5 -248.5t-27.5 -82.5v-400q0 -25 14.5 -33t64.5 -11t146 -7q45 -2 46 -49v-16q0 -39 -33 -39l-41 4q-41 2 -110.5 5t-137.5 3 q-70 0 -139.5 -3t-110.5 -5l-41 -4q-51 0 -51 57q0 27 11 36t47 12t102 5h6q18 2 26.5 4t17.5 12.5t9 28.5v424q0 25 -4 40.5t-14 31.5l-25 41l-377 604q-20 25 -59 29t-49 24q-8 13 -8 29zM475 1587q0 39 30 67.5t68 28.5q41 0 70 -27.5t29 -66.5q0 -41 -29 -69.5 t-70 -28.5t-69.5 27.5t-28.5 68.5zM752 1587q0 39 29.5 67.5t68.5 28.5q41 0 69.5 -27.5t28.5 -66.5q0 -41 -28.5 -69.5t-69.5 -28.5t-69.5 27.5t-28.5 68.5z" />
<glyph unicode="&#x179;" horiz-adv-x="1288" d="M33 43q0 18 16 39q397 563 864 1079q29 33 29 45q0 23 -29 23h-661q-51 0 -71.5 -13.5t-33 -55.5t-30.5 -120q-10 -45 -43 -45q-41 0 -41 52q0 8 4 48t8 108.5t4 150.5v76q0 57 43 57q31 0 53 -49q16 -55 113 -56h893q49 0 49 -36q0 -10 -10 -26.5t-51 -71.5l-123 -161 l-297 -372q-223 -270 -328 -455q-10 -14 -10 -31q0 -31 37 -40t168 -17q98 -6 200 -6h43q135 0 202 21.5t102 103.5q14 33 28.5 117t20.5 96q14 20 39 20q16 0 32.5 -14t16.5 -43v-2q0 -39 -4 -71t-10.5 -71.5t-10.5 -70.5q-2 -109 -14 -177.5t-66 -74.5h-1071h-4 q-57 0 -57 43zM397 1548q0 27 39 54l283 204q61 47 104 47q33 0 57.5 -21.5t24.5 -51.5q0 -27 -18.5 -49.5t-28.5 -27.5t-37 -20q-371 -176 -383 -176q-16 0 -28.5 11.5t-12.5 29.5z" />
<glyph unicode="&#x17a;" horiz-adv-x="739" d="M25 47q0 18 26 62l418 563q12 12 12 26q0 29 -41 29h-243q-14 0 -20.5 -6t-11.5 -26.5t-13 -59.5q-10 -33 -35 -33q-37 0 -37 27l6 26q4 29 9 79t5 104v61q0 31 33 31h12q23 0 27 -38t31 -38h446q45 0 45 -31q0 -4 -12 -28l-406 -550q-59 -81 -59 -89q0 -23 33 -23h297 q6 0 17 -1t14 -1q18 0 26 9.5t13.5 37l15.5 78.5q10 33 35 33q49 0 49 -35l-6 -41q-6 -39 -13.5 -109.5t-7.5 -142.5q0 -39 2 -76v-35q0 -41 -61 -40q-35 0 -35 36v123q0 31 -35 31h-475q-61 0 -61 47zM168 1053q0 14 9 30.5t56 86.5l150 221q55 86 113 86q31 0 53 -21.5 t22 -54.5q0 -39 -49 -92q-266 -272 -284 -287q-14 -10 -31 -10q-18 0 -28.5 12.5t-10.5 28.5z" />
<glyph unicode="&#x17b;" horiz-adv-x="1288" d="M33 43q0 18 16 39q397 563 864 1079q29 33 29 45q0 23 -29 23h-661q-51 0 -71.5 -13.5t-33 -55.5t-30.5 -120q-10 -45 -43 -45q-41 0 -41 52q0 8 4 48t8 108.5t4 150.5v76q0 57 43 57q31 0 53 -49q16 -55 113 -56h893q49 0 49 -36q0 -10 -10 -26.5t-51 -71.5l-123 -161 l-297 -372q-223 -270 -328 -455q-10 -14 -10 -31q0 -31 37 -40t168 -17q98 -6 200 -6h43q135 0 202 21.5t102 103.5q14 33 28.5 117t20.5 96q14 20 39 20q16 0 32.5 -14t16.5 -43v-2q0 -39 -4 -71t-10.5 -71.5t-10.5 -70.5q-2 -109 -14 -177.5t-66 -74.5h-1071h-4 q-57 0 -57 43zM532 1681q0 49 36 83t83 34q49 0 84 -33.5t35 -81t-36 -81t-83 -33.5q-49 0 -84 32.5t-35 79.5z" />
<glyph unicode="&#x17c;" horiz-adv-x="739" d="M25 47q0 18 26 62l418 563q12 12 12 26q0 29 -41 29h-243q-14 0 -20.5 -6t-11.5 -26.5t-13 -59.5q-10 -33 -35 -33q-37 0 -37 27l6 26q4 29 9 79t5 104v61q0 31 33 31h12q23 0 27 -38t31 -38h446q45 0 45 -31q0 -4 -12 -28l-406 -550q-59 -81 -59 -89q0 -23 33 -23h297 q6 0 17 -1t14 -1q18 0 26 9.5t13.5 37l15.5 78.5q10 33 35 33q49 0 49 -35l-6 -41q-6 -39 -13.5 -109.5t-7.5 -142.5q0 -39 2 -76v-35q0 -41 -61 -40q-35 0 -35 36v123q0 31 -35 31h-475q-61 0 -61 47zM252 1124q0 49 36 83t83 34q49 0 83.5 -33.5t34.5 -81t-35.5 -81 t-82.5 -33.5q-49 0 -84 32.5t-35 79.5z" />
<glyph unicode="&#x17d;" horiz-adv-x="1288" d="M33 43q0 18 16 39q397 563 864 1079q29 33 29 45q0 23 -29 23h-661q-51 0 -71.5 -13.5t-33 -55.5t-30.5 -120q-10 -45 -43 -45q-41 0 -41 52q0 8 4 48t8 108.5t4 150.5v76q0 57 43 57q31 0 53 -49q16 -55 113 -56h893q49 0 49 -36q0 -10 -10 -26.5t-51 -71.5l-123 -161 l-297 -372q-223 -270 -328 -455q-10 -14 -10 -31q0 -31 37 -40t168 -17q98 -6 200 -6h43q135 0 202 21.5t102 103.5q14 33 28.5 117t20.5 96q14 20 39 20q16 0 32.5 -14t16.5 -43v-2q0 -39 -4 -71t-10.5 -71.5t-10.5 -70.5q-2 -109 -14 -177.5t-66 -74.5h-1071h-4 q-57 0 -57 43zM401 1786q0 10 8.5 20.5t24.5 10.5q25 0 53 -29l84 -73q31 -26 47.5 -36t30.5 -10q27 0 111 74t108 74q12 0 21.5 -8.5t9.5 -20.5t-21 -40l-155 -192q-37 -49 -78 -49q-25 0 -51 29l-165 203q-28 35 -28 47z" />
<glyph unicode="&#x17e;" horiz-adv-x="739" d="M25 47q0 18 26 62l418 563q12 12 12 26q0 29 -41 29h-243q-14 0 -20.5 -6t-11.5 -26.5t-13 -59.5q-10 -33 -35 -33q-37 0 -37 27l6 26q4 29 9 79t5 104v61q0 31 33 31h12q23 0 27 -38t31 -38h446q45 0 45 -31q0 -4 -12 -28l-406 -550q-59 -81 -59 -89q0 -23 33 -23h297 q6 0 17 -1t14 -1q18 0 26 9.5t13.5 37l15.5 78.5q10 33 35 33q49 0 49 -35l-6 -41q-6 -39 -13.5 -109.5t-7.5 -142.5q0 -39 2 -76v-35q0 -41 -61 -40q-35 0 -35 36v123q0 31 -35 31h-475q-61 0 -61 47zM182 1432q0 16 10.5 24t20.5 8q25 0 53 -47l48 -83q34 -58 34 -60 q8 -10 20.5 -10t20.5 9t29 44l59 102q27 45 49 45q31 0 31 -30q0 -12 -51 -160t-76 -203q-25 -59 -59 -59q-27 0 -51.5 42t-54.5 131l-77 224q-6 19 -6 23z" />
<glyph unicode="&#x17f;" horiz-adv-x="491" d="M20 774q0 61 43 62q76 0 90.5 2t14.5 18v2q6 250 88 393q59 100 167.5 162t207.5 62q76 0 111.5 -34t35.5 -73q0 -31 -23.5 -55.5t-62.5 -24.5q-29 0 -83 24.5t-87 24.5q-104 0 -157.5 -126t-53.5 -318q0 -8 1 -52t1 -93v-617v-6q0 -47 41 -49q72 -2 94.5 -7.5 t22.5 -35.5q0 -45 -33 -45l-26 4q-27 2 -71 5t-87 3q-45 0 -89 -3t-71 -5l-26 -4q-31 0 -31 51q0 16 8 22.5t29.5 9.5t58.5 9q12 2 19.5 8t9.5 14.5t2 18.5v8q8 102 8 588q0 16 -17.5 18t-91.5 2q-43 0 -43 37z" />
<glyph unicode="&#x237;" horiz-adv-x="475" d="M-74 -403q0 33 24.5 60.5t65.5 27.5q12 0 32 -3.5t30 -3.5q25 0 47 9.5t46 48.5t24 104q0 10 -1 57.5t-1 131.5v180q0 115 1 213t2 153.5t1 67.5q0 23 -7.5 34t-35 29.5t-80.5 49.5q-18 10 -19 24q0 10 9.5 17.5t64.5 30.5l172 73q8 4 14 4q20 0 21 -33q0 -10 -1 -60 t-2 -138t-1 -193q0 -162 2 -301t4 -218t2 -95q0 -43 -31 -90q-29 -41 -65.5 -85t-110.5 -104.5t-129 -60.5q-33 0 -55.5 19.5t-22.5 50.5z" />
<glyph unicode="&#x2c6;" horiz-adv-x="440" d="M33 1012q0 12 50 158.5t77 203.5q25 59 59 60q27 0 51.5 -42t54.5 -131l76 -225q6 -18 7 -22q0 -16 -10.5 -24.5t-20.5 -8.5q-25 0 -53 47l-59 104q-19 34 -26.5 42t-17.5 8q-12 0 -20 -9.5t-29 -44.5l-59 -104q-27 -43 -50 -43q-30 0 -30 31z" />
<glyph unicode="&#x2c7;" horiz-adv-x="440" d="M33 1401q0 16 10 24.5t20 8.5q25 0 54 -48l48 -82q34 -58 34 -61q8 -10 20 -10t20.5 9t28.5 44l60 103q27 45 49 45q31 0 31 -31q0 -12 -51.5 -159.5t-75.5 -203.5q-25 -59 -60 -59q-27 0 -51.5 42t-53.5 131l-77 224q-6 19 -6 23z" />
<glyph unicode="&#x2d8;" horiz-adv-x="557" d="M31 1290v6q0 20 45 21q14 0 20 -8.5t8 -22.5t12.5 -39.5t30.5 -52.5q55 -70 123 -70h2q35 0 66 16.5t53.5 43t36.5 49l27 45.5l10 22q10 14 24 15q37 0 37 -15q0 -12 -13 -57t-41 -105.5t-84 -106.5t-126 -46q-180 0 -231 305z" />
<glyph unicode="&#x2d9;" horiz-adv-x="299" d="M31 1094q0 49 35.5 82.5t83.5 33.5q49 0 83.5 -33.5t34.5 -80.5t-35.5 -81t-82.5 -34q-49 0 -84 33t-35 80z" />
<glyph unicode="&#x2da;" horiz-adv-x="401" d="M27 1151q0 74 51 127t123 53q74 0 124 -53t50 -127q0 -76 -51.5 -128t-123 -52t-122.5 52t-51 128zM109 1153q0 -41 27.5 -71.5t66.5 -30.5t65.5 30.5t26.5 69.5t-27.5 70.5t-66.5 31.5t-65.5 -29.5t-26.5 -70.5z" />
<glyph unicode="&#x2dc;" horiz-adv-x="688" d="M33 1180q0 6 35.5 60t56.5 75q47 47 102 47q47 0 115 -44t115 -44q41 0 75.5 23.5t55 47t29 23.5t23.5 -8t15 -19q0 -12 -40 -59t-74 -74q-57 -45 -119 -45q-55 0 -117.5 46t-101.5 46t-72 -26.5t-50.5 -53t-21.5 -26.5q-6 0 -16 11.5t-10 19.5z" />
<glyph unicode="&#x2000;" horiz-adv-x="983" />
<glyph unicode="&#x2001;" horiz-adv-x="1966" />
<glyph unicode="&#x2002;" horiz-adv-x="983" />
<glyph unicode="&#x2003;" horiz-adv-x="1966" />
<glyph unicode="&#x2004;" horiz-adv-x="655" />
<glyph unicode="&#x2005;" horiz-adv-x="491" />
<glyph unicode="&#x2006;" horiz-adv-x="327" />
<glyph unicode="&#x2007;" horiz-adv-x="327" />
<glyph unicode="&#x2008;" horiz-adv-x="245" />
<glyph unicode="&#x2009;" horiz-adv-x="393" />
<glyph unicode="&#x200a;" horiz-adv-x="108" />
<glyph unicode="&#x2010;" d="M25 369v28q0 20 7 29.5t31 28.5l282 197q50 34 63 34q33 0 32 -80q0 -29 -37 -57l-173 -123l-103 -75l-40 -26.5t-26 -9.5q-36 1 -36 54z" />
<glyph unicode="&#x2011;" d="M25 369v28q0 20 7 29.5t31 28.5l282 197q50 34 63 34q33 0 32 -80q0 -29 -37 -57l-173 -123l-103 -75l-40 -26.5t-26 -9.5q-36 1 -36 54z" />
<glyph unicode="&#x2012;" d="M25 369v28q0 20 7 29.5t31 28.5l282 197q50 34 63 34q33 0 32 -80q0 -29 -37 -57l-173 -123l-103 -75l-40 -26.5t-26 -9.5q-36 1 -36 54z" />
<glyph unicode="&#x2013;" horiz-adv-x="1079" d="M55 512v8q0 51 29 51h913q29 0 29 -51v-4q0 -57 -29 -57h-913q-29 0 -29 53z" />
<glyph unicode="&#x2014;" horiz-adv-x="2187" d="M55 512v8q0 51 29 51h2021q29 0 29 -51v-4q0 -33 -6 -45t-23 -12h-2021q-29 0 -29 53z" />
<glyph unicode="&#x2018;" d="M80 1180q0 109 41 168t74 59q39 -4 38 -41q0 -10 -36.5 -52t-36.5 -85q0 -31 20.5 -54.5t67.5 -23.5q6 0 18.5 1t18.5 1q55 0 78.5 -27.5t23.5 -60.5q0 -43 -36 -79t-95 -36q-66 0 -121 56.5t-55 173.5z" />
<glyph unicode="&#x2019;" d="M80 1286q0 43 35 79t94 36q66 0 122 -56.5t56 -173.5q0 -109 -42 -167t-75 -58q-16 0 -27.5 11.5t-11.5 27.5q0 10 37 53t37 86q0 29 -20.5 52.5t-67.5 23.5q-6 0 -18.5 -1t-18.5 -1q-55 0 -77.5 27.5t-22.5 60.5z" />
<glyph unicode="&#x201a;" d="M78 -4q0 43 36 79t95 36q66 0 121 -56.5t55 -173.5q0 -106 -41 -165.5t-74 -59.5q-16 0 -27.5 11t-11.5 28q0 10 36 53t36 86q0 76 -88 76q-6 0 -17.5 -1t-17.5 -1q-55 0 -78.5 27.5t-23.5 60.5z" />
<glyph unicode="&#x201c;" horiz-adv-x="851" d="M78 1180q0 109 42 168t75 59q39 -4 38 -41q0 -10 -36.5 -52t-36.5 -85q0 -78 88 -78q6 0 18.5 1t18.5 1q55 0 77.5 -27.5t22.5 -60.5q0 -43 -35 -79t-94 -36q-66 0 -122 56.5t-56 173.5zM467 1180q0 109 42 168t75 59q39 -4 39 -41q0 -10 -37 -52t-37 -85q0 -78 88 -78 q6 0 18.5 1t18.5 1q55 0 77.5 -27.5t22.5 -60.5q0 -43 -34.5 -79t-94.5 -36q-66 0 -122 56.5t-56 173.5z" />
<glyph unicode="&#x201d;" horiz-adv-x="851" d="M78 1286q0 43 36 79t95 36q66 0 121 -56.5t55 -173.5q0 -106 -41 -165.5t-74 -59.5h-2q-14 0 -25.5 12.5t-11.5 26.5q0 10 36 53t36 86q0 76 -88 76q-6 0 -17.5 -1t-17.5 -1q-55 0 -78.5 27.5t-23.5 60.5zM467 1286q0 43 36 79t95 36q66 0 121 -56.5t55 -173.5 q0 -106 -41 -165.5t-74 -59.5h-2q-14 0 -25 12.5t-11 26.5q0 10 35.5 53t35.5 86q0 76 -88 76q-6 0 -17.5 -1t-17.5 -1q-55 0 -78.5 27.5t-23.5 60.5z" />
<glyph unicode="&#x201e;" horiz-adv-x="851" d="M78 -4q0 43 36 79t95 36q66 0 121 -56.5t55 -173.5q0 -106 -41 -165.5t-74 -59.5q-16 0 -27.5 11t-11.5 28q0 10 36 53t36 86q0 76 -88 76q-6 0 -17.5 -1t-17.5 -1q-55 0 -78.5 27.5t-23.5 60.5zM467 -4q0 43 36 79t95 36q66 0 121 -56.5t55 -173.5q0 -106 -41 -165.5 t-74 -59.5q-16 0 -27 11t-11 28q0 10 35.5 53t35.5 86q0 76 -88 76q-6 0 -17.5 -1t-17.5 -1q-55 0 -78.5 27.5t-23.5 60.5z" />
<glyph unicode="&#x2022;" horiz-adv-x="585" d="M129 549q0 70 49 117t115 47q70 0 117 -49.5t47 -114.5q0 -70 -49.5 -117t-114.5 -47q-70 0 -117 49t-47 115z" />
<glyph unicode="&#x202f;" horiz-adv-x="393" />
<glyph unicode="&#x2032;" horiz-adv-x="458" d="M78 983v2q0 8 121 365q43 115 108 114q35 0 55.5 -22.5t20.5 -55.5q0 -27 -29 -79q-190 -340 -198 -351q-16 -20 -37 -20q-18 0 -29.5 14.5t-11.5 32.5z" />
<glyph unicode="&#x2033;" horiz-adv-x="796" d="M78 981v2q0 10 121 367q43 115 108 114q35 0 55.5 -22.5t20.5 -55.5q0 -27 -29 -79q-190 -340 -198 -351q-16 -20 -37 -20q-18 0 -29.5 13.5t-11.5 31.5zM416 981v2q0 10 123 367q39 115 108 114q33 0 53.5 -22.5t20.5 -55.5q0 -31 -27 -79l-109 -193q-87 -154 -91 -158 q-16 -20 -37 -20q-18 0 -29.5 13.5t-11.5 31.5z" />
<glyph unicode="&#x2039;" horiz-adv-x="456" d="M45 395q0 12 14 23l217 187q70 58 83.5 68.5t19.5 10.5q12 0 22.5 -13.5t10.5 -25.5q0 -6 -7.5 -16.5t-51.5 -60.5l-138 -156q-8 -8 -8 -15q0 -10 194 -235q8 -8 9 -17q0 -12 -10.5 -25.5t-22.5 -13.5q-8 0 -39 26l-283 245q-10 10 -10 18z" />
<glyph unicode="&#x203a;" horiz-adv-x="456" d="M45 645q0 12 11.5 25.5t21.5 13.5q8 0 47 -33l272 -233q14 -10 15 -23v-2q0 -8 -41 -44l-271 -232q-10 -10 -20 -10.5t-21.5 11t-11.5 25.5q0 10 8 19q195 225 195 233t-8 17l-189 213q-8 8 -8 20z" />
<glyph unicode="&#x2044;" horiz-adv-x="890" d="M12 -354q0 8 772 1523q10 18 31 19q63 0 64 -37q0 -2 -7 -21q-766 -1497 -774 -1505t-26 -8q-60 0 -60 29z" />
<glyph unicode="&#x205f;" horiz-adv-x="491" />
<glyph unicode="&#x20ac;" horiz-adv-x="1460" d="M41 707l51 124h172q41 139 122 244t176 159t183.5 79.5t165.5 25.5q154 0 274 -47t234 -157l-57 -129q-14 23 -45 52t-84 68t-135 65t-174 26q-156 0 -305.5 -92.5t-223.5 -293.5h895l-51 -124h-870q0 -4 -1 -20.5t-1 -29.5q0 -14 1 -30.5t1 -20.5h827l-53 -127h-748 q43 -129 137.5 -220t192.5 -128t195 -37q45 0 90 6t80.5 18.5t68.5 26t60.5 31t49 32.5t39 30.5t28 26.5t16.5 20l8 8l8 -2v-160q-201 -160 -440 -160q-92 0 -184.5 26t-186.5 81t-172 158.5t-121 242.5h-215l51 127h144v101h-203z" />
<glyph unicode="&#x2122;" horiz-adv-x="1882" d="M86 1300l29 140q6 16 24 16h582q18 0 22.5 -13t22.5 -130l2 -4q2 -4 2 -6q0 -12 -8 -19.5t-16.5 -7.5t-28.5 20q-20 39 -31.5 58.5t-17.5 23.5t-21 4h-147q-16 0 -17 -22v-520q0 -8 1 -12.5t13.5 -6.5t23.5 -3t48 -3q14 -2 17.5 -8t3.5 -25q0 -25 -21 -24q-4 0 -20.5 2 t-46 3t-64.5 1h-4q-37 0 -67.5 -1t-47 -3t-20.5 -2q-25 0 -25 30q0 14 7.5 20.5t25 7.5t45.5 3q29 4 29 33v504q0 27 -21 26h-151q-20 0 -26.5 -9t-43.5 -81q0 -6 -7 -14t-21 -8q-25 -1 -25 30zM815 784q0 16 11.5 24.5t28.5 9.5t38 3q8 2 10 2t7 9.5t6 18.5l6 44 q4 35 6 67.5t6 106.5q12 147 12 246q0 14 -30.5 47t-71.5 35q-25 0 -25 20q0 27 21 27h143q20 0 29 -14l188 -314q123 -197 131 -196.5t8 10.5l263 485q4 12 10 20.5t18 8.5h148q20 0 20 -27q0 -25 -51 -31t-51 -32q0 -96 4 -480v-12q0 -18 1 -26.5t13 -13.5t20.5 -6 t39.5 -3q25 0 24 -29q0 -27 -24 -26q-4 0 -19.5 2t-43.5 3t-60 1h-4q-35 0 -64 -1t-44 -3t-19 -2q-25 0 -25 28q0 18 14.5 22.5t55.5 8.5q23 2 30 12.5t7 36.5v211q0 162 -5 162l-6 -6q-6 -8 -31.5 -51t-64.5 -115l-122 -224q-40 -71 -49 -83t-21 -12h-5q-16 0 -34.5 38.5 t-86 166.5t-169.5 284q0 2 -4 2q0 -2 -2.5 -80t-2.5 -127q0 -154 3.5 -182.5t17.5 -28.5q18 -2 35.5 -3t30 -9t12.5 -25q0 -27 -21 -26l-39 4q-39 2 -80 2q-33 0 -60.5 -1t-42.5 -3t-19 -2q-21 -1 -21 26z" />
<glyph unicode="&#x2212;" horiz-adv-x="1435" d="M109 518v27q0 45 49 45h1130q41 0 41 -39v-29q0 -49 -55 -49h-1118q-47 0 -47 45z" />
<glyph unicode="&#x22c5;" d="M111 532.5q0 51.5 35.5 85t85 33.5t86 -35.5t36.5 -85t-34.5 -84t-86.5 -34.5q-49 0 -85.5 34.5t-36.5 86z" />
<glyph unicode="&#xe000;" horiz-adv-x="850" d="M0 850h850v-850h-850v850z" />
<glyph horiz-adv-x="555" d="M29 1528q0 12 22 41l154 190q37 49 78 49q25 0 51 -28q143 -174 167.5 -206t24.5 -44q0 -10 -8 -20.5t-24 -10.5q-25 0 -54 29l-112 94q-31 25 -49 25q-27 0 -111 -74t-109 -74q-30 0 -30 29z" />
<glyph horiz-adv-x="577" d="M35 1536q0 27 39 53l282 205q61 47 105 47q33 0 57.5 -21.5t24.5 -52.5q0 -27 -18.5 -49t-29 -27t-36.5 -20q-371 -176 -383 -176q-16 0 -28.5 11.5t-12.5 29.5z" />
<glyph horiz-adv-x="577" d="M35 1767q0 33 23.5 53.5t56.5 20.5q45 0 106 -47q305 -221 314 -233q8 -16 8 -27q0 -18 -12.5 -28.5t-28.5 -10.5h-2q-12 0 -381 176q-84 41 -84 96z" />
<glyph horiz-adv-x="663" d="M33 1718q0 14 15 29.5t34 15.5q6 0 42 -34.5t92 -69.5t115.5 -35t117 35t92 69.5t41.5 34.5q16 0 33.5 -15t17.5 -30q0 -10 -36 -62t-109.5 -108.5t-151.5 -56.5h-8q-78 0 -151 56.5t-108.5 108.5t-35.5 62z" />
<glyph horiz-adv-x="555" d="M29 1778q0 10 8 20t24 10q25 0 54 -28l84 -73q31 -26 47 -36t30 -10q27 0 111 73.5t109 73.5q12 0 21 -8t9 -20.5t-21 -39.5l-155 -192q-37 -49 -78 -49q-25 0 -51 29l-165 203q-27 35 -27 47z" />
<glyph horiz-adv-x="974" d="M78 1180q0 109 42 168t75 59q39 -4 38 -41q0 -10 -36.5 -52t-36.5 -85q0 -78 88 -78q6 0 18.5 1t18.5 1q55 0 77.5 -27.5t22.5 -60.5q0 -43 -35 -79t-94 -36q-66 0 -122 56.5t-56 173.5zM590 1180q0 109 42 168t75 59q39 -4 38 -41q0 -10 -36.5 -52t-36.5 -85 q0 -78 88 -78q6 0 18.5 1t18.5 1q55 0 77.5 -27.5t22.5 -60.5q0 -43 -35 -79t-94 -36q-66 0 -122 56.5t-56 173.5z" />
<glyph horiz-adv-x="974" d="M78 1286q0 43 36 79t95 36q66 0 121 -56.5t55 -173.5q0 -106 -41 -165.5t-74 -59.5h-2q-14 0 -25.5 12.5t-11.5 26.5q0 10 36 53t36 86q0 76 -88 76q-6 0 -17.5 -1t-17.5 -1q-55 0 -78.5 27.5t-23.5 60.5zM590 1286q0 43 36 79t95 36q66 0 121 -56.5t55 -173.5 q0 -106 -41 -165.5t-74 -59.5h-2q-14 0 -25.5 12.5t-11.5 26.5q0 10 36 53t36 86q0 76 -88 76q-6 0 -17.5 -1t-17.5 -1q-55 0 -78.5 27.5t-23.5 60.5z" />
<glyph horiz-adv-x="974" d="M78 -4q0 43 36 79t95 36q66 0 121 -56.5t55 -173.5q0 -106 -41 -165.5t-74 -59.5q-16 0 -27.5 11t-11.5 28q0 10 36 53t36 86q0 76 -88 76q-6 0 -17.5 -1t-17.5 -1q-55 0 -78.5 27.5t-23.5 60.5zM590 -4q0 43 36 79t95 36q66 0 121 -56.5t55 -173.5q0 -106 -41 -165.5 t-74 -59.5q-16 0 -27.5 11t-11.5 28q0 10 36 53t36 86q0 76 -88 76q-6 0 -17.5 -1t-17.5 -1q-55 0 -78.5 27.5t-23.5 60.5z" />
</font>
</defs>
</svg>
